Подарунок / Echelon Conspiracy (2009) Remux 1080p Ukr/Eng | Sub Eng

Нові коментарі

Нова тема   Відповісти
Останній раз роздавалося tzapik (2017-10-17)
Автор Повідомлення
staf777 
Відео Гуртом - підтримка та поширення
Відео Гуртом - підтримка та поширення


З нами з: 16.11.16
Востаннє: 11.09.17
Повідомлень: 522

2016-12-13 13:11  
Подарунок / Echelon Conspiracy (2009) Remux 1080p Ukr/Eng | Sub Eng

Подарунок / Echelon Conspiracy (2009) Remux 1080p Ukr/Eng | Sub Eng

Український постер


повнорозмірні зображення відкриються по кліку (з натиснутим CTRL чи кліком середньою кнопкою мишки - у новій вкладці)

Жанр: бойовик, пригодницький, детектив
Країна: США



Кінокомпанія: Mobicom Entertainment, Zinc Entertainment Inc.
Режисер: Ґреґ Меркс
Актори: Шейн Вест, Едвард Бернс, Вінґ Реймс, Сєргєй Губанов, Мартін Шин / Martin Sheen

Сюжет:
Що буде, якщо Ви отримаєте подарунок, котрий виконає всі Ваші бажання. Подарунок, від якого Ви не зможете відмовитися, але за який Вам доведеться розплатитися. Звичайному хлопцю Максу Пітерсону доля підносить саме такий подарунок. Його життя круто міняється... Але, як довго він зможе насолоджуватися цим щастям, і, якою ціною воно йому обернеться?


Тривалість: 01:45:17
Якість: Remux 1080p
Відео:
кодек:
розмір кадру: 1920x1080
бітрейт: 23,1 Мб/с

Аудіо # 1:
мова: українська
переклад: професійний дубльований | ААА-sound
кодек: 5.1
бітрейт: 448 кб/с

Аудіо # 2:
мова: англійська
переклад: оригінал
кодек: Dolby TrueHD 5.1
бітрейт: 4418 кб/с

Аудіо # 3:
мова: англійська
переклад: оригінал
кодек: 5.1
бітрейт: 640 кб/с

Субтитри # 1-2:
мова: англійська (повні, SDH)
тип: пререндерні
формат: PGS
Info
General
Unique ID : 180336686779009637537320246955114438716 (0x87AB951FA1FCADE79DAAAEE5E5E3203C)
Complete name : M:\Фільми в HD\Бойовик\Echelon Conspiracy (2009) Remux 1080p [Hurrtom].
Format :
Format version : Version 4 / Version 2
File size : 20.6 GiB
Duration : 1h 45mn
Overall bit rate mode : Variable
Overall bit rate : 28.0 Mbps
Movie name : Echelon Conspiracy (2009) Remux 1080p [Hurrtom]
Encoded date : UTC 2016-12-13 09:53:00
Writing application : mkvmerge v9.5.0 ('Quiet Fire') 64bit
Writing library : libebml v1.3.4 + libmatroska v1.4.5
Attachements : image.PNG.png / image.PNG.png / image.jpeg.jpg

Video
ID : 1
Format : AVC
Format/Info : Advanced Video Codec
Format profile : [email protected]
Format settings, CABAC : Yes
Format settings, ReFrames : 2 frames
Codec ID : V_MPEG4/ISO/AVC
Duration : 1h 45mn
Bit rate mode : Variable
Bit rate : 23.1 Mbps
Width : 1 920 pixels
Height : 1 080 pixels
Display aspect ratio : 16:9
Frame rate mode : Constant
Frame rate : 23.976 (24000/1001) fps
Color space : YUV
Chroma subsampling : 4:2:0
Bit depth : 8 bits
Scan type : Progressive
Bits/(Pixel*Frame) : 0.464
Stream size : 17.0 GiB (82%)
Title : Echelon Conspiracy 2009
Default : Yes
Forced : No

Audio #1
ID : 2
Format : AC-3
Format/Info : Audio Coding 3
Mode extension : CM (complete main)
Format settings, Endianness : Big
Codec ID : A_AC3
Duration : 1h 45mn
Bit rate mode : Constant
Bit rate : 448 Kbps
Channel(s) : 6 channels
Channel positions : Front: L C R, Side: L R, LFE
Sampling rate : 48.0 KHz
Frame rate : 31.250 fps (1536 spf)
Compression mode : Lossy
Stream size : 337 MiB (2%)
Title : Ukrainian: 48 kHz, , 3/2 (L,C,R,l,r) + LFE ch, ~448.00 kbps
Language : Ukrainian
Default : Yes
Forced : Yes

Audio #2
ID : 3
Format : TrueHD
Codec ID : A_TRUEHD
Duration : 1h 45mn
Bit rate mode : Variable
Bit rate : 3 778 Kbps
Maximum bit rate : 5 517 Kbps
Channel(s) : 6 channels
Channel positions : Front: L C R, Side: L R, LFE
Sampling rate : 48.0 KHz
Frame rate : 1 200.000 fps (40 spf)
Compression mode : Lossless
Stream size : 2.78 GiB (13%)
Title : English: 48 kHz/24-bit, Dolby TrueHD 5.1, ~4418.00 kbps
Language : English
Default : No
Forced : No

Audio #3
ID : 4
Format : AC-3
Format/Info : Audio Coding 3
Mode extension : CM (complete main)
Format settings, Endianness : Big
Codec ID : A_AC3
Duration : 1h 45mn
Bit rate mode : Constant
Bit rate : 640 Kbps
Channel(s) : 6 channels
Channel positions : Front: L C R, Side: L R, LFE
Sampling rate : 48.0 KHz
Frame rate : 31.250 fps (1536 spf)
Compression mode : Lossy
Stream size : 482 MiB (2%)
Title : 5. 640 kbps
Language : English
Default : No
Forced : No

Text #1
ID : 5
Format : PGS
Muxing mode : zlib
Codec ID : S_HDMV/PGS
Codec ID/Info : Picture based subtitle format used on BDs/HD-DVDs
Duration : 1h 34mn
Bit rate : 9 971 bps
Count of elements : 1992
Stream size : 6.73 MiB (0%)
Language : English
Default : Yes
Forced : No

Text #2
ID : 6
Format : PGS
Muxing mode : zlib
Codec ID : S_HDMV/PGS
Codec ID/Info : Picture based subtitle format used on BDs/HD-DVDs
Duration : 1h 40mn
Bit rate : 10.5 Kbps
Count of elements : 2226
Stream size : 7.51 MiB (0%)
Language : English
Default : No
Forced : No
Скріншоти




Джерело:


Золотий реліз (завантажене не впливає на рейтинг)
 Трекер:    Зареєстрований   

Завантажити / скачати фільм українською



відео для новачків



 Зареєстрований:   2016-12-14 20:23
 Розмір:   20.63 GB 
 Оцінка фільму:   7.3/10 (Голосів: 3)
   
Інші релізи
   Подарунок / Echelon Conspiracy (2009) Ukr/Eng | Sub Eng karvai0  3 / 0   2.18 GB   2011-05-23 11:26 
   Подарунок / Echelon Conspiracy (2009) 720p Ukr/Eng | Sub Eng DiGen  2 / 0   6.06 GB   2010-04-07 22:53 
Ваш часовий пояс: GMT + 2 Години

Нова тема   Відповісти