Великий дружній велетень / The BFG (2016) 1080p 3D [HalfOverUnder] Ukr/Eng | Sub Eng

Нові коментарі

Нова тема   Відповісти
Автор Повідомлення
-VipeR- 
VIP


З нами з: 17.07.08
Востаннє: 17.10.17
Повідомлень: 293

2016-12-12 16:02  
Великий дружній велетень / The BFG (2016) 1080p 3D [HalfOverUnder] Ukr/Eng | Sub Eng

Великий дружній велетень / The BFG (2016) 1080p 3D [HalfOverUnder] Ukr/Eng | Sub Eng


Жанр: сімейний, фентезі
Країна: США, Великобританія, Канада



Кінокомпанія: Walt Disney Pictures, Dreamworks Pictures
Режисер: Стівен Спілберг
Актори: Марк Райленс, Ребекка Холл, Рубі Барнхілл, Білл Хадер, Джемейн Клемент, Пенелопа Уілтон, Олафур Даррі Олафссон, Адам Годлі, Рейф Сполл, Майкл Адамтвейт та інші

Сюжет:
Великий і добрий велетень не схожий на інших мешканців Землі гігантів. У нього великі вуха і гострий нюх. І хоча велетень не надто розумний, він чарівний. Інші жителі вдвічі більше і страшніше нього, а також їдять людей. Великий і добрий велетень став вигнанцем для них, через своє добре серце і відмову їсти дівчаток і хлопчиків. Маленька Софі зустрічає гіганта, і, хоча спочатку його вигляд вселяє в неї страх, потім вони стають кращими друзями. Але присутність дівчинки в Країні гігантів приваблює її страшних і злих мешканців.


Тривалість: 01:57:06
Якість: 1080p 3D [HalfOverUnder] ash61
Відео:
кодек:
розмір кадру: 1920 х 1080
бітрейт: 8 803 кб/с

Аудіо # 1:
мова: українська
переклад: професійний дубльований
кодек: 2.0
бітрейт: 192 кб/с

Аудіо # 2:
мова: англійська
переклад: оригінал
кодек: 5.1
бітрейт: 640 кб/с

Субтитри:
мова: англійська(Full, SHD)
тип: програмні (м'які)
формат: *.srt
Info
Код:
General
Unique ID                      : 201543543884713400143118201754876910014 (0x979FDFE786893EC7B6C1B92F4F2019BE)
Complete name                  : D:\3D\Художні\The BFG (2016) 1080p 3D [Ukr Eng].
Format                         :
Format version                 : Version 4 / Version 2
File size                      : 7.89 GiB
Duration                       : 1h 57mn
Overall bit rate               : 9 637 Kbps
Movie name                     : Великий дружній велетень / The BFG (2016) 3D
Encoded date                   : UTC 2016-12-12 12:46:36
Writing application            : mkvmerge v8.8.0 ('Wind at my back') 64bit
Writing library                : libebml v1.3.3 + libmatroska v1.4.4
Cover                          : Yes
Attachments                    : cover.jpg

Video
ID                             : 1
Format                         : AVC
Format/Info                    : Advanced Video Codec
Format profile                 : [email protected]
Format settings, CABAC         : Yes
Format settings, ReFrames      : 4 frames
Codec ID                       : V_MPEG4/ISO/AVC
Duration                       : 1h 57mn
Bit rate                       : 8 803 Kbps
Width                          : 1 920 pixels
Height                         : 1 080 pixels
Display aspect ratio           : 16:9
Frame rate mode                : Constant
Frame rate                     : 23.976 (24000/1001) fps
Color space                    : YUV
Chroma subsampling             : 4:2:0
Bit depth                      : 8 bits
Scan type                      : Progressive
Bits/(Pixel*Frame)             : 0.177
Stream size                    : 7.20 GiB (91%)
Title                          : by Ash61 (from BD 3D UK)
Writing library                : core 146 r2538 121396c
Encoding settings              : cabac=1 / ref=4 / deblock=1:-3:-3 / analyse=0x3:0x113 / me=umh / subme=10 / psy=1 / psy_rd=1.00:0.00 / mixed_ref=1 / me_range=32 / chroma_me=1 / trellis=2 / 8x8dct=1 / cqm=0 / deadzone=21,11 / fast_pskip=1 / chroma_qp_offset=-2 / threads=12 / lookahead_threads=2 / sliced_threads=0 / nr=0 / decimate=1 / interlaced=0 / bluray_compat=0 / constrained_intra=0 / bframes=9 / b_pyramid=2 / b_adapt=2 / b_bias=0 / direct=3 / weightb=1 / open_gop=0 / weightp=2 / keyint=250 / keyint_min=23 / scenecut=40 / intra_refresh=0 / rc_lookahead=60 / rc=crf / mbtree=1 / crf=15.5 / qcomp=0.70 / qpmin=0 / qpmax=69 / qpstep=4 / vbv_maxrate=40000 / vbv_bufsize=30000 / crf_max=0.0 / nal_hrd=none / filler=0 / frame-packing=4 / ip_ratio=1.40 / aq=1:0.70
Language                       : English
Default                        : Yes
Forced                         : No

Audio #1
ID                             : 2
Format                         : AC-3
Format/Info                    : Audio Coding 3
Mode extension                 : CM (complete main)
Format settings, Endianness    : Big
Codec ID                       : A_AC3
Duration                       : 1h 57mn
Bit rate mode                  : Constant
Bit rate                       : 192 Kbps
Channel(s)                     : 2 channels
Channel positions              : Front: L R
Sampling rate                  : 48.0 KHz
Frame rate                     : 31.250 fps (1536 spf)
Compression mode               : Lossy
Stream size                    : 161 MiB (2%)
Title                          : ukr 192 kb/s
Language                       : Ukrainian
Default                        : Yes
Forced                         : Yes

Audio #2
ID                             : 3
Format                         : AC-3
Format/Info                    : Audio Coding 3
Mode extension                 : CM (complete main)
Format settings, Endianness    : Big
Codec ID                       : A_AC3
Duration                       : 1h 57mn
Bit rate mode                  : Constant
Bit rate                       : 640 Kbps
Channel(s)                     : 6 channels
Channel positions              : Front: L C R, Side: L R, LFE
Sampling rate                  : 48.0 KHz
Frame rate                     : 31.250 fps (1536 spf)
Compression mode               : Lossy
Stream size                    : 536 MiB (7%)
Title                          : Original - BD 3D UK
Language                       : English
Default                        : No
Forced                         : No

Text #1
ID                             : 4
Format                         : UTF-8
Codec ID                       : S_TEXT/UTF8
Codec ID/Info                  : UTF-8 Plain Text
Duration                       : 1h 45mn
Bit rate                       : 32 bps
Count of elements              : 928
Stream size                    : 24.8 KiB (0%)
Title                          : Full
Language                       : English
Default                        : No
Forced                         : No

Text #2
ID                             : 5
Format                         : UTF-8
Codec ID                       : S_TEXT/UTF8
Codec ID/Info                  : UTF-8 Plain Text
Duration                       : 1h 47mn
Bit rate                       : 37 bps
Count of elements              : 1205
Stream size                    : 29.9 KiB (0%)
Title                          : SDH
Language                       : English
Default                        : No
Forced                         : No

Menu
00:00:00.000                   : :1
00:07:24.736                   : :2
00:11:54.505                   : :3
00:18:54.884                   : :4
00:23:15.311                   : :5
00:25:03.293                   : :6
00:28:11.690                   : :7
00:36:47.163                   : :8
00:41:24.148                   : :9
00:45:48.829                   : :10
00:52:01.744                   : :11
00:57:45.879                   : :12
01:03:01.569                   : :13
01:11:32.705                   : :14
01:15:52.131                   : :15
01:25:57.194                   : :16
01:36:18.648                   : :17
01:41:29.417                   : :18
01:46:05.192                   : :19
01:48:57.239                   : :20
Скріншоти




Джерело: &
Особиста оцінка: 0 - не дивився
Відео для перегляду на 3D обладнанні!


 Трекер:    Зареєстрований   

Завантажити / скачати фільм українською



відео для новачків



 Зареєстрований:   2016-12-12 16:02
 Розмір:   7.89 GB 
 Оцінка фільму:   7.3/10 (Голосів: 8)
   
Інші релізи
Electroz 
Відео Гуртом - підтримка та поширення
Відео Гуртом - підтримка та поширення


З нами з: 18.09.14
Востаннє: 18.10.17
Повідомлень: 1689

2016-12-12 17:49  
Пропоную вказати, що відео для перегляду в 3D обладнанні.
-VipeR- 
VIP


З нами з: 17.07.08
Востаннє: 17.10.17
Повідомлень: 293

2016-12-12 18:32  
Electroz
Ніби вказував, коли оформляв, мабуть не зберіг.

mishka1998 
Відео Гуртом - дизайнер
Відео Гуртом - дизайнер


З нами з: 12.11.11
Востаннє: 17.10.17
Повідомлень: 39

2016-12-12 20:50  
Станьте на роздачу
pvm 
Поважний учасник


З нами з: 05.03.10
Востаннє: 17.10.17
Повідомлень: 164

2016-12-13 18:36  
Як фільм, саме в плані 3d ?
-VipeR- 
VIP


З нами з: 17.07.08
Востаннє: 17.10.17
Повідомлень: 293

2016-12-15 12:06  
pvm написано:
Як фільм, саме в плані 3d ?

Середній, не зовсім плоский, але і не вау...

pvm65 
Частий відвідувач


З нами з: 02.01.16
Востаннє: 17.10.17
Повідомлень: 49

2016-12-15 14:23  
-VipeR-
Дякую за відповідь

His_Infernal_Majesty 
Новенький


З нами з: 01.12.14
Востаннє: 17.10.17
Повідомлень: 23

2017-01-22 16:12  
Очікував більшого від Спілберга...Фільм вийшов нудний та затягнутий- ледве додивився
Ваш часовий пояс: GMT + 2 Години

Нова тема   Відповісти