Дракон Піта / Pete's Dragon (2016) 720p-mini

Нові коментарі

Нова тема   Відповісти
Автор Повідомлення
Drool 
VIP


З нами з: 17.04.10
Востаннє: 12.12.18
Повідомлень: 1500

2016-12-12 11:21  
Дракон Піта / Pete's Dragon (2016) 720p-mini

Офіційний трейлер

Жанр: пригоди, сімейний, казка, фентезі
Країна: США



Кінокомпанія: Walt Disney Pictures
Режисер: Девід Лоурі
Актори: Оукс Феглі, Брайс Даллас Ховард, Карл Урбан, Роберт Редфорд, Уес Бентлі, Уна Лоуренс, Ісайя Уїтлок мол., Аарон Джексон, Філіп Грів, Маркус Хендерсон та інші

Сюжет:
Багато років старий майстер зачаровував місцевих дітлахів розповідями про жорстокого дракона, який ховається в дрімучих лісах. Все це могло б залишитися просто небилицями, але одного разу донька майстра зустрічає незвичайного хлопця. Знайомтесь, це Піт, а це - його друг Елліот, так сталося, що Елліот – дракон, і Піт стверджує, що вони мешкають у лісі удвох із зеленим гігантом. Попереду дружба, веселі пригоди і таємнича місія в довершеному візуальному виконанні Disney!


Тривалість: 01:42:45
Якість: 720p-mini
Відео:
кодек:
розмір кадру: 1280 х 532
бітрейт: 2035 кб/с

Аудіо:
мова: українська
переклад: професійний дубльований
кодек: 5.1
бітрейт: 448 кб/с
Info
Код:
General
Unique ID                                : 143356595896355377908194735631005807332 (0x6BD979E0219818503129329DE28672E4)
Complete name                            : /mnt/disk_d/Video/Pete's.Dragon.2016.Ukr.Dub..720p-mini.
Format                                   :
Format version                           : Version 4 / Version 2
File size                                : 1.81 GiB
Duration                                 : 1h 42mn
Overall bit rate                         : 2 528 Kbps
Movie name                               : Дракон Піта / Pete's Dragon (2016) 720p-mini | video by KinoGadget
Encoded date                             : UTC 2016-12-19 14:33:52
Writing application                      : v9.2.0 ('Photograph') 64bit
Writing library                          : libebml v1.3.3 + v1.4.4
Attachements                             : cover.jpg
DURATION                                 : 01:42:44.256000000
NUMBER_OF_FRAMES                         : 192633
NUMBER_OF_BYTES                          : 345198336
_STATISTICS_WRITING_APP                  : v9.2.0 ('Photograph') 64bit
_STATISTICS_WRITING_DATE_UTC             : 2016-12-19 14:33:52
_STATISTICS_TAGS                         : BPS DURATION NUMBER_OF_FRAMES NUMBER_OF_BYTES

Video
ID                                       : 1
Format                                   : AVC
Format/Info                              : Advanced Video Codec
Format profile                           : [email protected]
Format settings, CABAC                   : Yes
Format settings, ReFrames                : 10 frames
Codec ID                                 : V_MPEG4/ISO/AVC
Duration                                 : 1h 42mn
Bit rate                                 : 2 029 Kbps
Width                                    : 1 280 pixels
Height                                   : 532 pixels
Display aspect ratio                     : 2.40:1
Frame rate mode                          : Constant
Frame rate                               : 23.976 fps
Color space                              : YUV
Chroma subsampling                       : 4:2:0
Bit depth                                : 8 bits
Scan type                                : Progressive
Bits/(Pixel*Frame)                       : 0.124
Stream size                              : 1.46 GiB (80%)
Title                                    : Дракон Піта / Pete's Dragon (2016) 720p-mini | video by KinoGadget
Writing library                          : core 148 r2638 7599210
Encoding settings                        : cabac=1 / ref=10 / deblock=1:-1:-1 / analyse=0x3:0x133 / me=umh / subme=7 / psy=1 / psy_rd=1.00:0.15 / mixed_ref=1 / me_range=24 / chroma_me=1 / trellis=2 / 8x8dct=1 / cqm=0 / deadzone=21,11 / fast_pskip=1 / chroma_qp_offset=-3 / threads=3 / lookahead_threads=1 / sliced_threads=0 / nr=0 / decimate=1 / interlaced=0 / bluray_compat=0 / constrained_intra=0 / bframes=12 / b_pyramid=2 / b_adapt=2 / b_bias=0 / direct=3 / weightb=1 / open_gop=0 / weightp=2 / keyint=240 / keyint_min=23 / scenecut=40 / intra_refresh=0 / rc_lookahead=60 / rc=crf / mbtree=1 / crf=18.0 / qcomp=0.60 / qpmin=0 / qpmax=69 / qpstep=4 / ip_ratio=1.40 / aq=1:1.00
Default                                  : Yes
Forced                                   : Yes

Audio
ID                                       : 2
Format                                   : AC-3
Format/Info                              : Audio Coding 3
Mode extension                           : CM (complete main)
Format settings, Endianness              : Big
Codec ID                                 : A_AC3
Duration                                 : 1h 42mn
Bit rate mode                            : Constant
Bit rate                                 : 448 Kbps
Channel(s)                               : 6 channels
Channel positions                        : Front: L C R, Side: L R, LFE
Sampling rate                            : 48.0 KHz
Compression mode                         : Lossy
Stream size                              : 329 MiB (18%)
Title                                    : Рідна мова | 5.1 448 kbps 48 Hz
Language                                 : Ukrainian
Default                                  : Yes
Forced                                   : Yes
Скріншоти




Джерело:
Особиста оцінка: 8 - мені сподобалося


 Трекер:    Зареєстрований   

Завантажити / скачати фільм українською



відео для новачків



 Зареєстрований:   2016-12-19 17:14
 Розмір:   1.81 GB 
 Оцінка фільму:   9.3/10 (Голосів: 15)
   
Інші релізи
   Дракон Піта / Pete's Dragon (2016) 1080p Ukr/Eng | Sub Eng Electroz  3 / 0   9.67 GB   2016-12-18 22:17 
   Дракон Піта / Pete's Dragon (2016) AVC Ukr/Eng | Eng AngryBirdsUA  5 / 0   2.18 GB   2016-12-18 11:13 
   Дракон Піта / Pete's Dragon (2016) 720p Ukr/Eng | Sub Eng 11FrYkT  7 / 0   4.83 GB   2016-12-18 11:05 
   Дракон Піта / Pete's Dragon (2016) Gelios  21 / 0   1.45 GB   2016-12-18 10:41 
Drool 
VIP


З нами з: 17.04.10
Востаннє: 12.12.18
Повідомлень: 1500

2016-12-19 17:16  
Звукову доріжку замінено на 5.1 448 kbps 48 Hz!
Walkerrovno 
Новенький


З нами з: 23.03.13
Востаннє: 10.12.18
Повідомлень: 11

2018-09-14 18:49  
дякую
Ваш часовий пояс: GMT + 2 Години

Нова тема   Відповісти