Боуфінгер - кльовий хлопець / Bowfinger (1999) Remux 1080p 2xUkr/Eng | Sub Eng

Нові коментарі

Нова тема   Відповісти
Автор Повідомлення
staf777 
Відео Гуртом - підтримка та поширення
Відео Гуртом - підтримка та поширення


З нами з: 16.11.16
Востаннє: 25.09.20
Повідомлень: 4034

2016-12-11 23:36  
Боуфінгер - кльовий хлопець / Bowfinger (1999) Remux 1080p
2xUkr/Eng | Sub Eng

Боуфінгер - кльовий хлопець / Bowfinger (1999) Remux 1080p 2xUkr/Eng | Sub Eng


Жанр: комедія
Країна: США



Кінокомпанія: Universal Pictures, Imagine Entertainment
Режисер: Френк Оз ( Frank Oz)
Актори: Стів Мартін (Steve Martin), Едді Мерфі (Eddie Murphy), Гезер Ґрем (Heather Graham), Крістін Баранскі (Christine Baranski), Джейми Кеннеді (Jamie Kennedy), Адам Алексі-Малл (Adam Alexi-Malle), Кол Саддат (Kohl Sudduth), Беррі Ньюман (Barry Newman), Теренс Стемп (Terence Stamp), Роберт Дауні-молодший (Robert Downey Jr.), Алехандро Патіно (Alejandro Patino), Джонні Санчез (Johnny Sanchez)

Сюжет:
Боббі Боуфінгер — кльовий хлопець! Не страшно, що він найбезглуздіший режисер Голлівуду. Боббі вирішив зняти справжній бойовик. І не просто бойовик, а блокбастер, який принесе купу грошей і незгасаючу славу. Що ж для цього потрібно? По-перше, хороший сценарій! Сценарій у Боббі є. Та ще й який! У ньому злісні інопланетяни спускаються на Землю у вигляді дощових крапель і атакують людей.
По-друге, актори. Боуфінгер залучив до зйомки усіх своїх друзів, обіцяючи їм казна-що.
Ну і по-третє, у фільмі повинна зніматися суперзірка. При чому не просто зірка, а сам Кіт Ремзі - справжній герой бойовиків. Тоді кінотеатри будуть переповнені, щоб побачити у цьому фільмі Кіта Ремзі.
От тільки є одна проблема. Кіт Ремзі зніматися у Боббі і не збирається. Але Боуфінгер не здається і знаходить вихід. Кіт Ремзі зніметься у його фільмі! Хоча він сам про це не знатиме...


Тривалість: 01:36:13
Якість: Remux 1080p
Відео:
кодек:
розмір кадру: 1920x1080
бітрейт: 19 Mб/с

Аудіо # 1:
мова: українська
переклад: двоголосий закадровий
кодек: -HD MA 5.1
бітрейт: 2206 кб/с
примітка: доріжка отримана накладанням чистих голосів на центр оригіналу
Інформація про озвучення
Студія "Новий Канал" на замовлення телеканалу "Новий канал"

Ролі озвучили: Олег Лепенець і Лідія Муращенко
Аудіо # 2:
мова: українська
переклад: двоголосий закадровий
кодек: 5.1
бітрейт: 384 кб/с
примітка: доріжка отримана накладанням чистих голосів на центр оригіналу
Інформація про озвучення
Студія "Новий Канал" на замовлення телеканалу "Новий канал"

Ролі озвучили: Олег Лепенець і Лідія Муращенко
Аудіо # 3:
мова: українська
переклад: багатоголосий закадровий
кодек: 2.0
бітрейт: 192 кб/с

Аудіо # 4:
мова: англійська
переклад: оригінал
кодек: -HD MA 5.1
бітрейт: 2195 кб/с

Аудіо # 5:
мова: англійська
переклад: оригінал
кодек: 2.0
бітрейт: 448 кб/с

Субтитри:
мова: англійська
тип: пререндерні
формат: PGS
Info

General
Unique ID : 73822763060964265489716848701734640947 (0x3789BF3B1B657208C17A2508363BDD33)
Complete name : F:\Фільми в HD\Kомедія\Bowfinger (1999) Remux 1080p [2xUKR][ENG][Hurtom].
Format :
Format version : Version 4
File size : 16.5 GiB
Duration : 1 h 36 min
Overall bit rate mode : Variable
Overall bit rate : 24.4 Mb/s
Movie name : Редагувати/знищити це повідомлення / Боуфінгер - кльовий хлопець / Bowfinger (1999) Remux 1080p [2xUKR][ENG][Hurtom]
Encoded date : UTC 2020-01-10 14:27:17
Writing application : v41.0.0 ('Smarra') 64-bit
Writing library : libebml v1.3.9 + v1.5.2
Cover : Yes
Attachments : cover.jpg..jpg / image.jped.jpg

Video
ID : 1
Format : AVC
Format/Info : Advanced Video Codec
Format profile : [email protected]
Format settings : CABAC / 4 Ref Frames
Format settings, CABAC : Yes
Format settings, Reference : 4 frames
Codec ID : V_MPEG4/ISO/AVC
Duration : 1 h 36 min
Bit rate mode : Variable
Bit rate : 19.0 Mb/s
Maximum bit rate : 36.0 Mb/s
Width : 1 920 pixels
Height : 1 080 pixels
Display aspect ratio : 16:9
Frame rate mode : Constant
Frame rate : 23.976 (24000/1001) FPS
Standard : NTSC
Color space : YUV
Chroma subsampling : 4:2:0
Bit depth : 8 bits
Scan type : Progressive
Bits/(Pixel*Frame) : 0.382
Stream size : 12.8 GiB (78%)
Default : Yes
Forced : No
Color range : Limited
Color primaries : BT.709
Transfer characteristics : BT.709
Matrix coefficients : BT.709

Audio #1
ID : 2
Format : XLL
Format/Info : Digital Theater Systems
Commercial name : -HD Master Audio
Codec ID : A_DTS
Duration : 1 h 36 min
Bit rate mode : Variable
Bit rate : 2 206 kb/s
Channel(s) : 6 channels
Channel layout : C L R Ls Rs LFE
Sampling rate : 48.0 kHz
Frame rate : 93.750 FPS (512 SPF)
Bit depth : 16 bits
Compression mode : Lossless
Stream size : 1.49 GiB (9%)
Title : Ukrainian: 48 kHz/16-bit, -HD MA 5.1, ~2206 kbps
Language : Ukrainian
Default : Yes
Forced : Yes

Audio #2
ID : 3
Format : AC-3
Format/Info : Audio Coding 3
Commercial name : Dolby Digital
Codec ID : A_AC3
Duration : 1 h 36 min
Bit rate mode : Constant
Bit rate : 384 kb/s
Channel(s) : 6 channels
Channel layout : L R C LFE Ls Rs
Sampling rate : 48.0 kHz
Frame rate : 31.250 FPS (1536 SPF)
Compression mode : Lossy
Stream size : 266 MiB (2%)
Title : [UKR-DVO-H]
Language : Ukrainian
Service kind : Complete Main
Default : No
Forced : No

Audio #3
ID : 4
Format : AC-3
Format/Info : Audio Coding 3
Commercial name : Dolby Digital
Codec ID : A_AC3
Duration : 1 h 36 min
Bit rate mode : Constant
Bit rate : 192 kb/s
Channel(s) : 2 channels
Channel layout : L R
Sampling rate : 48.0 kHz
Frame rate : 31.250 FPS (1536 SPF)
Compression mode : Lossy
Stream size : 133 MiB (1%)
Title : [UKR-MVO-NLO]
Language : Ukrainian
Service kind : Complete Main
Default : No
Forced : No

Audio #4
ID : 5
Format : XLL
Format/Info : Digital Theater Systems
Commercial name : -HD Master Audio
Codec ID : A_DTS
Duration : 1 h 36 min
Bit rate mode : Variable
Bit rate : 2 195 kb/s
Channel(s) : 6 channels
Channel layout : C L R Ls Rs LFE
Sampling rate : 48.0 kHz
Frame rate : 93.750 FPS (512 SPF)
Bit depth : 16 bits
Compression mode : Lossless
Stream size : 1.48 GiB (9%)
Title : English: 48 kHz/16-bit, -HD MA 5.1, ~2195 kbps
Language : English
Default : No
Forced : No

Audio #5
ID : 6
Format : AC-3
Format/Info : Audio Coding 3
Commercial name : Dolby Digital
Codec ID : A_AC3
Duration : 1 h 36 min
Bit rate mode : Constant
Bit rate : 448 kb/s
Channel(s) : 2 channels
Channel layout : L R
Sampling rate : 48.0 kHz
Frame rate : 31.250 FPS (1536 SPF)
Compression mode : Lossy
Stream size : 310 MiB (2%)
Title : English: 48 kHz, , 2/0 (L,R) ch, ~448 kbps
Language : English
Service kind : Complete Main
Default : No
Forced : No

Text
ID : 7
Format : PGS
Muxing mode : zlib
Codec ID : S_HDMV/PGS
Codec ID/Info : Picture based subtitle format used on BDs/HD-DVDs
Duration : 1 h 34 min
Bit rate : 24.7 kb/s
Count of elements : 2028
Stream size : 16.7 MiB (0%)
Language : English
Default : No
Forced : No
Скріншоти



Джерело: &
Дякую пану підпільник за український постер
Особиста оцінка: 10 - без зайвих вагань рекомендую всім!


Золотий реліз (завантажене не впливає на рейтинг)
 Трекер:    Зареєстрований   

Завантажити / скачати фільм українською



відео для новачків



 Зареєстрований:   2020-01-10 18:28
 Розмір:   16.52 GB 
 Оцінка фільму:   9.3/10 (Голосів: 14)
   
krigg070 
Відео Гуртом - фільмокрай
Відео Гуртом - фільмокрай


З нами з: 29.10.14
Востаннє: 25.09.20
Повідомлень: 1774

2016-12-12 00:57  
staf777 написано:

переклад: двоголосий закадровий
кодек: -HD MA 5.1
бітрейт: 2206 кб/с

Ого-го! З'явилась HD версія Нового?)

igor911 
Модератор відео


З нами з: 18.01.08
Востаннє: 25.09.20
Повідомлень: 15006

2016-12-16 01:03  
krigg070 написано:
Ого-го! З'явилась HD версія Нового?

ні, просто давно було джерело з Нового, діставали чисті голоси.

Додано через 4 хвилини 51 секунду:

чи то якийсь до їх фтп мали доступ, десь навіть був скандал (між Гуртом та клабом, вже не пам'ятаю подробиць, уривками давно читав, як "спалили" той сервак і Новий прикрив діру)...

alexshab 
Новенький


З нами з: 03.03.15
Востаннє: 25.09.20
Повідомлень: 24

2018-03-13 12:33  
Дуже гарний фільм!
portsmuth 
Свій


З нами з: 10.06.14
Востаннє: 22.08.20
Повідомлень: 77

2019-12-30 21:58  
Мені здається, що сьогодні навряд чи вийде знайти фільм схожий по духу. Добрий гумор, ніякої «чорнухи», позитивний загальний настрій ось чим можна виділити цей фільм серед інших. Хоча фільм сспочатку дещо нудний. Загалом, один раз подивитись можна.
staf777 
Відео Гуртом - підтримка та поширення
Відео Гуртом - підтримка та поширення


З нами з: 16.11.16
Востаннє: 25.09.20
Повідомлень: 4034

2020-01-10 18:50  
Додав доріжку від НЛО-ТБ
Done56 
VIP


З нами з: 23.11.15
Востаннє: 25.09.20
Повідомлень: 469

2020-01-10 22:34  
Пам'ятаю, коли дивився його по ТБ, трохи не всцявся від реготу.
MakRA 
VIP


З нами з: 11.11.18
Востаннє: 25.09.20
Повідомлень: 1120

2020-01-10 22:41  
Done56
Заінтригували, по назві і описові щось не пам"ятаю, треба глянути.

SHEVA1991 
Поважний учасник


З нами з: 29.11.12
Востаннє: 06.04.20
Повідомлень: 208

2020-03-29 17:45  
Класний фільм!! І смішний!!! Стів Мартін тут крутий!!! Та й Едді Мерфі не відстає. Дякую!!
Ваш часовий пояс: GMT + 2 Години

Нова тема   Відповісти