Епоха честі (Сезон 4) / Czas honoru (Season 4) (2010) 720p Ukr/Pol | Sub Eng

Нові коментарі

Нова тема   Відповісти
Автор Повідомлення
krigg070 
Відео Гуртом - фільмокрай
Відео Гуртом - фільмокрай


З нами з: 29.10.14
Востаннє: 27.11.20
Повідомлень: 1817

2016-12-11 19:42  
Епоха честі (Сезон 4) / Czas honoru (Season 4) (2010) 720p Ukr/Pol | Sub Eng



Жанр: драма, романтичний, воєнний
Країна: Польща



Кінокомпанія: Akson Studio, Telewizja Polska
Режисер: Роб Маꥳлліврей (Rob MacGillivray), Стівен Бейвол (Steven Bawol), Філ Окс (Phil Ox)
Актори: Мачей Закосьцельнй (Maciej Zakoscielny), Якуб Весоловський (Jakub Wesolowski), Ян Вечорковскій (Jan Wieczorkowski), Єва Венкель (Ewa Wencel), Агнешка Вендлоха (Agnieszka Wiedlocha), Катажина Гневковська (Katarzyna Gniewkowska), Магдалена Ружчка (Magdalena Rózczka), Ентоні Павлицький (Antoni Pawlicki), Пєтр Адамчик (Piotr Adamczyk) та інші

Сюжет:
Історія про солдатів. яких у той час називали тіхотемними. Розповідається про диверсантів, які під час Другої світової війни в Англії пройшли навчання, щоб повернутися в окуповану нацистами Польщу з місією боротьби за незалежність.
Перелік серій
    01. Вже час / Juz czas...
    02. У пастці / W pulapce
    03. Хто ви така? / Kim pani jest?
    04. Зондеркоманда Тигр / Sonderkommando Tiger
    05. Таємна зброя / Tajna bron
    06. Новий свідок / Nowy swiadek
    07. Знак Розенфабра / Znak Rosenfabra
    08. Освідчення / Oswiadczyny
    09. Німецькі розрахунки / Niemieckie porachunki
    10. Похід до рейху / Wyprawa do Rzeszy
    11. Остання подорож / Ostatnia podróz
    12. Дівчина з перловими сережками / Dziewczyna z perla
    13. Золотий конвой / Zloty konwój
Тривалість: 1 серія: ~45 хв. (цілком серій: 13)
Якість:
Відео:
кодек:
розмір кадру: 1280 х 720
бітрейт: ~4000 кб/с

Аудіо # 1:
мова: українська
переклад: двоголосий закадровий [КІТ]
кодек: 2.0
бітрейт: 192 кб/с

Аудіо # 2:
мова: польська
переклад: оригінал
кодек: 5.1
бітрейт: 384 кб/с
Запис з телеканалу:

Субтитри:
мова: англійська
тип: програмні (м'які)
формат: *.srt
Скріншоти
Info
Код:
Video
ID                             : 1
Format                         : AVC
Format/Info                    : Advanced Video Codec
Format profile                 : [email protected]
Format settings, CABAC         : Yes
Format settings, ReFrames      : 4 frames
Codec ID                       : V_MPEG4/ISO/AVC
Duration                       : 44mn 59s
Bit rate                       : 4 002 Kbps
Width                          : 1 280 pixels
Height                         : 720 pixels
Display aspect ratio           : 16:9
Frame rate mode                : Constant
Frame rate                     : 25.000 fps
Color space                    : YUV
Chroma subsampling             : 4:2:0
Bit depth                      : 8 bits
Scan type                      : Progressive
Bits/(Pixel*Frame)             : 0.174
Stream size                    : 1.26 GiB (87%)
Writing library                : core 129 r2230 1cffe9f
Encoding settings              : cabac=1 / ref=4 / deblock=1:-3:-3 / analyse=0x3:0x113 / me=umh / subme=6 / psy=1 / psy_rd=1.00:0.00 / mixed_ref=1 / me_range=16 / chroma_me=1 / trellis=2 / 8x8dct=1 / cqm=0 / deadzone=21,11 / fast_pskip=1 / chroma_qp_offset=-2 / threads=6 / lookahead_threads=1 / sliced_threads=0 / nr=0 / decimate=1 / interlaced=0 / bluray_compat=0 / constrained_intra=0 / bframes=3 / b_pyramid=2 / b_adapt=2 / b_bias=0 / direct=3 / weightb=1 / open_gop=0 / weightp=2 / keyint=250 / keyint_min=25 / scenecut=40 / intra_refresh=0 / rc_lookahead=40 / rc=2pass / mbtree=1 / bitrate=4002 / ratetol=1.0 / qcomp=0.60 / qpmin=10 / qpmax=51 / qpstep=4 / cplxblur=20.0 / qblur=0.5 / vbv_maxrate=50000 / vbv_bufsize=50000 / nal_hrd=none / ip_ratio=1.40 / aq=1:1.00
Language                       : Polish
Default                        : Yes
Forced                         : No

Audio #1
ID                             : 2
Format                         : AC-3
Format/Info                    : Audio Coding 3
Mode extension                 : CM (complete main)
Format settings, Endianness    : Big
Codec ID                       : A_AC3
Duration                       : 44mn 59s
Bit rate mode                  : Constant
Bit rate                       : 192 Kbps
Channel(s)                     : 2 channels
Channel positions              : Front: L R
Sampling rate                  : 48.0 KHz
Frame rate                     : 31.250 fps (1536 spf)
Compression mode               : Lossy
Stream size                    : 61.8 MiB (4%)
Title                          : 2.0 @ 192 kbps - KIT
Language                       : Ukrainian
Default                        : Yes
Forced                         : No

Audio #2
ID                             : 3
Format                         : AC-3
Format/Info                    : Audio Coding 3
Mode extension                 : CM (complete main)
Format settings, Endianness    : Big
Codec ID                       : A_AC3
Duration                       : 44mn 59s
Bit rate mode                  : Constant
Bit rate                       : 384 Kbps
Channel(s)                     : 6 channels
Channel positions              : Front: L C R, Side: L R, LFE
Sampling rate                  : 48.0 KHz
Frame rate                     : 31.250 fps (1536 spf)
Compression mode               : Lossy
Stream size                    : 124 MiB (8%)
Title                          : 5.1 @ 384 kbps - Original
Language                       : Polish
Default                        : No
Forced                         : No

Text
ID                             : 4
Format                         : UTF-8
Codec ID                       : S_TEXT/UTF8
Codec ID/Info                  : UTF-8 Plain Text
Duration                       : 43mn 2s
Bit rate                       : 35 bps
Count of elements              : 316
Stream size                    : 11.3 KiB (0%)
Title                          : Full
Language                       : English
Default                        : No
Forced                         : No
Джерело:


Бронзовий реліз (на рейтинг впливає 75% завантаженого)
 Трекер:    Зареєстрований   

Завантажити / скачати серіал українською



відео для новачків



 Зареєстрований:   2016-12-11 19:42
 Розмір:   18.68 GB 
 Оцінка серіалу:   10/10 (Голосів: 11)
   
krigg070 
Відео Гуртом - фільмокрай
Відео Гуртом - фільмокрай


З нами з: 29.10.14
Востаннє: 27.11.20
Повідомлень: 1817

2016-12-11 19:45  
Прохання дати золото хоча б на кілька днів, а то 3 сезон уже майже ніхто не вантажить/роздає.
11FrYkT 
Модератор відео


З нами з: 20.02.11
Востаннє: 27.11.20
Повідомлень: 7033

2016-12-11 21:49  
золото на тиждень для заохочення підтримки
wahl888 
Новенький


З нами з: 01.05.14
Востаннє: 01.11.20
Повідомлень: 1

2016-12-22 20:21  
Дякую за українську озвучку, якраз передивилась 3 сезони, а 4-й знайшла тільки в оригіналі.
Не очікувала так скоро її отриматиHappy.

SsashI 
Відео Гуртом - запис з ТБ
Відео Гуртом - запис з ТБ


З нами з: 16.10.10
Востаннє: 18.11.20
Повідомлень: 509

2017-01-05 21:23  
На Першому національному транслюють вже 5й сезон.
and2006 
Новенький


З нами з: 25.12.16
Востаннє: 27.11.20
Повідомлень: 4

2017-01-27 14:30  
Можу стати на роздачу1-2 сезону Але попередньо сам хотів завантажити (3-4 роздаю)
smakoszsoczewica 
Новенький


З нами з: 09.07.10
Востаннє: 20.05.20
Повідомлень: 9

2017-09-17 12:35  
Дякую!
Sentinel73 
Частий відвідувач


З нами з: 25.08.11
Востаннє: 25.11.20
Повідомлень: 38

2020-02-26 00:30  
Дякую.
Ваш часовий пояс: GMT + 2 Години

Нова тема   Відповісти