"Темнемісце" Ґарта Маренґі (сезон 1) / Garth Marenghi's Darkplace (Season 1) (2004) Eng | sub Ukr

Нові коментарі

Нова тема   Відповісти
Автор Повідомлення
Час_настал 
VIP


З нами з: 01.07.10
Востаннє: 21.08.17
Повідомлень: 297

2016-12-11 18:47  
"Темнемісце" Ґарта Маренґі (Сезон 1) / Garth Marenghi's Darkplace (Season 1) (2004) Eng | sub Ukr

"Темнемісце" Ґарта Маренґі (сезон 1) / Garth Marenghi's Darkplace (Season 1) (2004) Eng | sub Ukr


Жанр: комедія, пародія
Країна: Велика Британія



Кінокомпанія: Channel 4
Режисер: Річард Аояд
Актори: Річард Аодя, Мет Беррі, Меттью Холнесс, Еліс Лоу

Сюжет:
Серіал пародія на фільми жахів 80х років та авторів, які їх створювали. Дії відбуваються у лікарні "Темнемісце", де лікар Рік Небевзь доктор меднаук відчайдушно бореться з різними проявами зла...


Переклад з англійської мови: Віталій Данмер

Тривалість: 00:23:51
Якість:
Відео:
кодек:
розмір кадру: 640 х 480
бітрейт: 1036 кб/с

Аудіо:
мова: англійська
переклад: оригінал
кодек: MP3
бітрейт: 118 кб/с

Субтитри:
мова: українська
тип: програмні (м'які)
формат: *.srt
Перелік серій

Серія 1 - Одного разу на початку
Серія 2 - Пекельна лють
Серія 3 - Оченя Шкіппер
Серія 4 - Мавпи гніву
Серія 5 - Шотландська імла
Серія 6 - Жахливий мох з узбережжя Шаґґот
Скріншоти



Info

"Темнемісце" Ґарта Маренґі - 1х01 - Одного разу на початку.avi
Format : AVI
Format/Info : Audio Video Interleave
File size : 199 MiB
Duration : 23mn 51s
Overall bit rate mode : Variable
Overall bit rate : 1 166 Kbps
Writing application : VirtualDubMod 1.5.4.1 (build 2178/release)
Writing library : VirtualDubMod build 2178/release

Video
ID : 0
Format : MPEG-4 Visual
Format profile : Advanced [email protected]
Format settings, BVOP : 1
Format settings, QPel : No
Format settings, GMC : No warppoints
Format settings, Matrix : Custom
Codec ID :
Codec ID/Hint :
Duration : 23mn 51s
Bit rate : 1 036 Kbps
Width : 640 pixels
Height : 480 pixels
Display aspect ratio : 4:3
Frame rate : 25.000 fps
Color space : YUV
Chroma subsampling : 4:2:0
Bit depth : 8 bits
Scan type : Progressive
Compression mode : Lossy
Bits/(Pixel*Frame) : 0.135
Stream size : 177 MiB (89%)
Writing library : 1.2.0.dev47 (UTC 2006-11-01)

Audio
ID : 1
Format : MPEG Audio
Format version : Version 1
Format profile : Layer 3
Mode : Joint stereo
Mode extension : MS Stereo
Codec ID : 55
Codec ID/Hint : MP3
Duration : 23mn 51s
Bit rate mode : Variable
Bit rate : 118 Kbps
Nominal bit rate : 128 Kbps
Channel(s) : 2 channels
Sampling rate : 48.0 KHz
Compression mode : Lossy
Stream size : 20.1 MiB (10%)
Alignment : Aligned on interleaves
Interleave, duration : 24 ms (0.60 video frame)
Interleave, preload duration : 462 ms
Writing library : LAME3.97
Encoding settings : -m j -V 4 -q 2 -lowpass 17 --abr 128
Language : English
Джерело:
Особиста оцінка: 10 - без зайвих вагань рекомендую всім!


Авторський реліз (завантажувати можна без реєстрації)
 Трекер:    Зареєстрований   

Завантажити / скачати серіал українською



відео для новачків



 Зареєстрований:   2016-12-28 11:59
 Розмір:   1.17 GB 
 Оцінка серіалу:   10/10 (Голосів: 3)
   
11FrYkT 
Модератор відео


З нами з: 20.02.11
Востаннє: 21.08.17
Повідомлень: 3807

2016-12-11 22:53  
Час_настал, вкажіть джерело сабів
Час_настал 
VIP


З нами з: 01.07.10
Востаннє: 21.08.17
Повідомлень: 297

2016-12-11 23:52  
11FrYkT написано:
Час_настал, вкажіть джерело сабів

Мій переклад. Вказав у описі.

Час_настал 
VIP


З нами з: 01.07.10
Востаннє: 21.08.17
Повідомлень: 297

2016-12-15 16:45  
Додано 2гу серію.
Час_настал 
VIP


З нами з: 01.07.10
Востаннє: 21.08.17
Повідомлень: 297

2016-12-17 23:03  
Додано 3тю серію.
Час_настал 
VIP


З нами з: 01.07.10
Востаннє: 21.08.17
Повідомлень: 297

2016-12-22 20:31  
Додано 4ту серію.
Час_настал 
VIP


З нами з: 01.07.10
Востаннє: 21.08.17
Повідомлень: 297

2016-12-26 16:02  
Додано 5ту серію.
Час_настал 
VIP


З нами з: 01.07.10
Востаннє: 21.08.17
Повідомлень: 297

2016-12-28 12:00  
Додано 6ту серію. Переклад закінчено.
Ваш часовий пояс: GMT + 2 Години

Нова тема   Відповісти