Трансформери. Роботи під прикриттям / Transformers: Robots in Disguise (Сезон 3) (2015) 1080p Ukr/Eng

Нові коментарі

Нова тема   Відповісти
Автор Повідомлення
sergiyko.5 
Забанено
Забанено


З нами з: 25.02.16
Востаннє: 29.10.20
Повідомлень: 3648

2016-12-11 13:38  
Трансформери. Роботи під прикриттям / Transformers: Robots in Disguise (Сезон 3) (2015) 1080p Ukr/Eng

Трансформери. Роботи під прикриттям / Transformers: Robots in Disguise (Сезон 3) (2015) 1080p Ukr/Eng

Жанр: дитячий, пригодницький
Країна: США
Режисер: Адам Бечен

Сюжет:
Ціною власної іскри, Прайму вдалося врятувати Кібертрон і всіх його мешканців від тотального знищення. Тепер це цілком мирна планета трансформерів, проте і тут трапляються дрібні злодії та злочинці. Для боротьби із ними було створено спеціальний загін, де зараз служить Бамбалбі та його перспективна напарниця. Одного разу, до нього приходить уривчасте послання від Оптимуса, який просить негайно вирушати на Землю. Бамбалбі поспішає до космічного порталу і разом з напарницею переміщується на планету. Що мав на увазі Прайм, було незрозуміло, проте ясно одне - Земля знову знаходиться у великій небезпеці!




Тривалість: 1 серія: 21:40 (цілком серій: 6)
Якість: 1080p

Відео: кодек: розмір кадру: 1920 х 1080 бітрейт: 5000 кб/с
Аудіо # 1: мова: українська переклад: професійний дубльований кодек: 2.0 бітрейт: 192 кб/с
Аудіо # 2: мова: англійська переклад: оригінал кодек: 5.1 бітрейт: 384 кб/с
Аудіо # 3: мова: англійська переклад: оригінал кодек: 2.0 бітрейт: 160 кб/с
Субтитри: мова: англійська тип: програмні (м'які) формат: *.srt
Джерело озвучення:
Перелік серій
01 History Lessons
02 Strongarms Big Score
03 Pretzel Logic
04 Mighty Big Trouble
05 Mini-Con Madness
06 Worthy
Info
General
Unique ID : 231324741352774904358506653014677394932 (0xAE07864DD12B0981BFCD7188C51215F4)
Complete name : E:\Torrents\Mult_4\Transformers Robots in Disguise S03 1080p\Transformers.Robots.in.Disguise.2015.S03E01.History.Lessons.1080p..
Format :
Format version : Version 4 / Version 2
File size : 902 MiB
Duration : 21 min 40 s
Overall bit rate : 5 821 kb/s
Movie name : S03E01.History Lessons by sergiyko
Encoded date : UTC 2016-12-11 10:19:01
Writing application : v9.4.0 ('Knurl') 64bit
Writing library : libebml v1.3.4 + v1.4.5

Video
ID : 1
Format : AVC
Format/Info : Advanced Video Codec
Format profile : [email protected]
Format settings, CABAC : Yes
Format settings, ReFrames : 4 frames
Codec ID : V_MPEG4/ISO/AVC
Duration : 21 min 40 s
Bit rate : 5 086 kb/s
Width : 1 920 pixels
Height : 1 080 pixels
Display aspect ratio : 16:9
Frame rate mode : Constant
Frame rate : 23.976 (24000/1001) FPS
Color space : YUV
Chroma subsampling : 4:2:0
Bit depth : 8 bits
Scan type : Progressive
Bits/(Pixel*Frame) : 0.102
Stream size : 788 MiB (87%)
Title : S03E01 History Lessons
Language : English
Default : Yes
Forced : No
Color range : Limited
Color primaries : BT.709
Transfer characteristics : BT.709
Matrix coefficients : BT.709

Audio #1
ID : 2
Format : AC-3
Format/Info : Audio Coding 3
Mode extension : CM (complete main)
Format settings, Endianness : Big
Codec ID : A_AC3
Duration : 21 min 40 s
Bit rate mode : Constant
Bit rate : 192 kb/s
Channel(s) : 2 channels
Channel positions : Front: L R
Sampling rate : 48.0 kHz
Frame rate : 31.250 FPS (1536 spf)
Compression mode : Lossy
Stream size : 29.8 MiB (3%)
Title : DUB 2ch 192kbps | ПлюсПлюс
Language : Ukrainian
Default : Yes
Forced : Yes

Audio #2
ID : 3
Format : AC-3
Format/Info : Audio Coding 3
Mode extension : CM (complete main)
Format settings, Endianness : Big
Codec ID : A_AC3
Duration : 21 min 40 s
Bit rate mode : Constant
Bit rate : 384 kb/s
Channel(s) : 6 channels
Channel positions : Front: L C R, Side: L R, LFE
Sampling rate : 48.0 kHz
Frame rate : 31.250 FPS (1536 spf)
Compression mode : Lossy
Stream size : 59.5 MiB (7%)
Title : DD5.1
Language : English
Default : No
Forced : No

Audio #3
ID : 4
Format :
Format/Info : Advanced Audio Codec
Format profile : LC
Codec ID : A_AAC
Duration : 21 min 40 s
Bit rate : 156 kb/s
Channel(s) : 2 channels
Channel positions : Front: L R
Sampling rate : 48.0 kHz
Frame rate : 46.875 FPS (1024 spf)
Compression mode : Lossy
Stream size : 24.1 MiB (3%)
Title : AAC2.0
Language : English
Default : No
Forced : No

Text
ID : 5
Format : UTF-8
Codec ID : S_TEXT/UTF8
Codec ID/Info : UTF-8 Plain Text
Duration : 21 min 12 s
Bit rate : 81 b/s
Count of elements : 403
Stream size : 12.6 KiB (0%)
Title : CC
Language : English
Default : No
Forced : No
Скріншоти:


Автор записів та синхрону: sergiyko


Бронзовий реліз (на рейтинг впливає 75% завантаженого)
 Трекер:    Зареєстрований   

Завантажити / скачати мультфільм українською



відео для новачків



 Зареєстрований:   2016-12-19 19:40
 Розмір:   5.27 GB 
 Оцінка мультсеріалу:   9.9/10 (Голосів: 16)
   
Dark Invader 
Модератор відео


З нами з: 06.01.11
Востаннє: 22.04.21
Повідомлень: 3181

2016-12-11 14:22  
Навіщо 2 англ. доріжки?
sergiyko.5 
Забанено
Забанено


З нами з: 25.02.16
Востаннє: 29.10.20
Повідомлень: 3648

2016-12-11 14:30  
Для користувачів з різними аудіосистемами. Пятиканальна доріжка має об'єм 59 Мб, 2-х канальна 24Мб, думаю некритично для загального файлу в 900Мб.

Додано через 2 хвилини 59 секунд:

Мабуть це порушення правил!? Біда.

Dark Invader 
Модератор відео


З нами з: 06.01.11
Востаннє: 22.04.21
Повідомлень: 3181

2016-12-11 14:34  
sergiyko.5
Та ні, але сенсу в цьому немає. Бо 5.1 доріжка і так буде відтворюватись в стерео, якщо немає 5.1 аудіосистеми.

sergiyko.5 
Забанено
Забанено


З нами з: 25.02.16
Востаннє: 29.10.20
Повідомлень: 3648

2016-12-11 17:26  
Я все ж думаю, що оригінальний звук був у варіантах 2 та 6 каналів, а не простий софтовий downmix.

Додано через 2 години 47 хвилин 56 секунд:

Додав другу серію.

sergiyko.5 
Забанено
Забанено


З нами з: 25.02.16
Востаннє: 29.10.20
Повідомлень: 3648

2016-12-19 19:41  
Додав 3-6 серії. Сезон повний. Всім приємного перегляду.
Ваш часовий пояс: GMT + 2 Години

Нова тема   Відповісти