Соціальна Мережа / The Social Network (2010) Remux 1080p 2xUkr/Eng | Sub Eng

Нові коментарі

Нова тема   Відповісти
Автор Повідомлення
staf777 
Відео Гуртом - підтримка та поширення
Відео Гуртом - підтримка та поширення


З нами з: 16.11.16
Востаннє: 23.09.20
Повідомлень: 4030

2016-12-10 19:59  
Соціальна Мережа / The Social Network (2010) Remux 1080p 2xUkr/Eng | Sub Eng

Оригінальна обкладинка

"Не можна знайти 500 мільйонів друзів, не наживши жодного ворога"


Жанр: біографічний, драма, історичний
Країна: США



Кінокомпанія: Columbia Pictures, Relativity Media, Michael De Luca Productions, Scott Rudin Productions
Режисер: Девід Фінчер
Актори: Джессі Айзенберг, Джастін Тімберлейк, Ендрю Гарфілд, Джозеф Маццелло, Руні Мара, Рашида Джонс, Малез Джоу, Бренда Сонг, Макс Мінгелла, Дакота Джонсон та інші

Сюжет:
У фільмі розповідається історія створення однієї з найбільш популярних в Інтернеті соціальних мереж - Facebook. Шалений успіх цієї мережі серед користувачів по всьому світу назавжди змінив життя студентів-однокурсників гарвардського університету, які заснували її в 2004 році і за кілька років стали наймолодшими у США мультимільйонерами. Історія створення соціальної мережі Facebook, починаючи з 2005 року в Гарварді і закінчуючи сьогоднішнім днем, коли кількість користувачів сягає двохсот мільйонів осіб.


Тривалість: 02:00:27
Якість: Remux 1080p
Відео:
кодек:
розмір кадру: 1920x1080
бітрейт: 25,9 Mб/с

Аудіо # 1:
мова: українська
переклад: професійний дубльований
кодек: 5.1
бітрейт: 640 кб/с

Аудіо # 2:
мова: українська
переклад: багатоголосий закадровий
кодек: 2.0
бітрейт: 192 кб/с

Аудіо # 3:
мова: англійська
переклад: оригінал
кодек: -HD MA 5.1
бітрейт: 2923 кб/с

Аудіо # 3:
мова: англійська
переклад: коментарі режисера
кодек: 2.0
бітрейт: 192 кб/с

Аудіо # 4:
мова: англійська
переклад: коментарі сценариста та акторів
кодек: 2.0
бітрейт: 192 кб/с

Субтитри # 1: [Forced]
мова: українська
тип: програмні (м'які)
формат: *.srt

Субтитри # 2: (Forced)
мова: українська
тип: пререндерні
формат: PGS

Субтитри # 3-5:
мова: англійська
тип: пререндерні
формат: PGS
Info
General
Unique ID : 149315739194897307510255305671406269257 (0x70552A52F5E347364A2904F6F1683349)
Complete name : L:\Фільми в HD\Драма\The Social Network (2010) Remux 1080p [2xUkr][Eng][Hurtom].
Format :
Format version : Version 4 / Version 2
File size : 25.3 GiB
Duration : 2 h 0 min
Overall bit rate mode : Variable
Overall bit rate : 30.1 Mb/s
Movie name : The Social Network (2010) Remux 1080p [2xUkr][Eng][Hurtom].
Encoded date : UTC 2018-12-23 09:00:31
Writing application : v24.0.0 ('Beyond The Pale') 64-bit
Writing library : libebml v1.3.6 + v1.4.9
Attachments : jpg.jpg

Video
ID : 1
Format : AVC
Format/Info : Advanced Video Codec
Format profile : [email protected]
Format settings : CABAC / 2 Ref Frames
Format settings, CABAC : Yes
Format settings, ReFrames : 2 frames
Format settings, GOP : M=1, N=10
Codec ID : V_MPEG4/ISO/AVC
Duration : 2 h 0 min
Bit rate mode : Variable
Bit rate : 25.9 Mb/s
Width : 1 920 pixels
Height : 1 080 pixels
Display aspect ratio : 16:9
Frame rate mode : Constant
Frame rate : 23.976 (24000/1001) FPS
Color space : YUV
Chroma subsampling : 4:2:0
Bit depth : 8 bits
Scan type : Progressive
Bits/(Pixel*Frame) : 0.521
Stream size : 21.8 GiB (86%)
Default : Yes
Forced : No

Audio #1
ID : 2
Format : AC-3
Format/Info : Audio Coding 3
Codec ID : A_AC3
Duration : 2 h 0 min
Bit rate mode : Constant
Bit rate : 640 kb/s
Channel(s) : 6 channels
Channel positions : Front: L C R, Side: L R, LFE
Sampling rate : 48.0 kHz
Frame rate : 31.250 FPS (1536 SPF)
Bit depth : 16 bits
Compression mode : Lossy
Stream size : 551 MiB (2%)
Language : Ukrainian
Service kind : Complete Main
Default : Yes
Forced : Yes

Audio #2
ID : 3
Format : AC-3
Format/Info : Audio Coding 3
Codec ID : A_AC3
Duration : 2 h 0 min
Bit rate mode : Constant
Bit rate : 192 kb/s
Channel(s) : 2 channels
Channel positions : Front: L R
Sampling rate : 48.0 kHz
Frame rate : 31.250 FPS (1536 SPF)
Bit depth : 16 bits
Compression mode : Lossy
Stream size : 165 MiB (1%)
Title : UKR (Paramount Comedy)
Language : Ukrainian
Service kind : Complete Main
Default : No
Forced : No

Audio #3
ID : 4
Format :
Format/Info : Digital Theater Systems
Format profile : MA / Core
Codec ID : A_DTS
Duration : 2 h 0 min
Bit rate mode : Variable / Constant
Bit rate : 2 923 kb/s / 1 509 kb/s
Channel(s) : 6 channels
Channel positions : Front: L C R, Side: L R, LFE
Sampling rate : 48.0 kHz
Frame rate : 93.750 FPS (512 SPF)
Bit depth : 24 bits
Compression mode : Lossless / Lossy
Stream size : 2.46 GiB (10%)
Language : English
Default : No
Forced : No

Audio #4
ID : 5
Format : AC-3
Format/Info : Audio Coding 3
Codec ID : A_AC3
Duration : 2 h 0 min
Bit rate mode : Constant
Bit rate : 192 kb/s
Channel(s) : 2 channels
Channel positions : Front: L R
Sampling rate : 48.0 kHz
Frame rate : 31.250 FPS (1536 SPF)
Bit depth : 16 bits
Compression mode : Lossy
Stream size : 165 MiB (1%)
Language : English
Service kind : Complete Main
Default : No
Forced : No

Audio #5
ID : 6
Format : AC-3
Format/Info : Audio Coding 3
Codec ID : A_AC3
Duration : 2 h 0 min
Bit rate mode : Constant
Bit rate : 192 kb/s
Channel(s) : 2 channels
Channel positions : Front: L R
Sampling rate : 48.0 kHz
Frame rate : 31.250 FPS (1536 SPF)
Bit depth : 16 bits
Compression mode : Lossy
Stream size : 165 MiB (1%)
Language : English
Service kind : Complete Main
Default : No
Forced : No

Text #1
ID : 7
Format : UTF-8
Codec ID : S_TEXT/UTF8
Codec ID/Info : UTF-8 Plain Text
Duration : 1 h 49 min
Bit rate : 1 b/s
Count of elements : 20
Stream size : 1.23 KiB (0%)
Title : UKR (Forced)
Language : Ukrainian
Default : Yes
Forced : Yes

Text #2
ID : 8
Format : PGS
Muxing mode : zlib
Codec ID : S_HDMV/PGS
Codec ID/Info : Picture based subtitle format used on BDs/HD-DVDs
Duration : 49 min 16 s
Bit rate : 248 b/s
Count of elements : 18
Stream size : 89.8 KiB (0%)
Language : Ukrainian
Default : No
Forced : No

Text #3
ID : 9
Format : PGS
Muxing mode : zlib
Codec ID : S_HDMV/PGS
Codec ID/Info : Picture based subtitle format used on BDs/HD-DVDs
Duration : 1 h 53 min
Bit rate : 70.5 kb/s
Count of elements : 4580
Stream size : 57.2 MiB (0%)
Language : English
Default : No
Forced : No

Text #4
ID : 10
Format : PGS
Muxing mode : zlib
Codec ID : S_HDMV/PGS
Codec ID/Info : Picture based subtitle format used on BDs/HD-DVDs
Duration : 1 h 57 min
Bit rate : 74.2 kb/s
Count of elements : 3956
Stream size : 62.6 MiB (0%)
Language : English
Default : No
Forced : No

Text #5
ID : 11
Format : PGS
Muxing mode : zlib
Codec ID : S_HDMV/PGS
Codec ID/Info : Picture based subtitle format used on BDs/HD-DVDs
Duration : 1 h 59 min
Bit rate : 83.4 kb/s
Count of elements : 4681
Stream size : 71.5 MiB (0%)
Language : English
Default : No
Forced : No








Джерело: &
Особиста оцінка: 0 - не дивився
ЗАЛИШАЙТЕСЬ ЯКОМОГА ДОВШЕ НА РОЗДАЧІ!

СКАЧАВ САМ - ДАЙ СКАЧАТИ ІНШИМ



Золотий реліз (завантажене не впливає на рейтинг)
 Трекер:    Зареєстрований   

Завантажити / скачати фільм українською



відео для новачків



 Зареєстрований:   2018-12-23 14:06
 Розмір:   25.34 GB 
 Оцінка фільму:   8.6/10 (Голосів: 20)
   
OL3X 
VIP


З нами з: 25.11.15
Востаннє: 20.09.20
Повідомлень: 458

2016-12-10 22:11  
Шикарний фільм
Vetal-XL 
VIP


З нами з: 31.03.10
Востаннє: 20.09.20
Повідомлень: 848

2016-12-11 03:27  
ще би якісь укр./рос./англ. субтитри до коментарів творців додали, було би взагалі шикардосно.
Neo7g 
Частий відвідувач


З нами з: 21.01.11
Востаннє: 17.09.20
Повідомлень: 28

2016-12-12 15:26  
Дякую за хороший фільм у відмінній якості.
staf777 
Відео Гуртом - підтримка та поширення
Відео Гуртом - підтримка та поширення


З нами з: 16.11.16
Востаннє: 23.09.20
Повідомлень: 4030

2016-12-12 19:34  
Neo7g
дивись на здоров'я

K2 
Поважний учасник


З нами з: 02.11.08
Востаннє: 23.09.20
Повідомлень: 240

2017-10-30 14:27  
Vetal-XL написано:
ще би якісь укр./рос./англ. субтитри до коментарів творців додали, було би взагалі шикардосно.

ще б пак!

staf777 
Відео Гуртом - підтримка та поширення
Відео Гуртом - підтримка та поширення


З нами з: 16.11.16
Востаннє: 23.09.20
Повідомлень: 4030

2018-12-23 14:05  
Додав доріжку від та форсовані саби 
Ваш часовий пояс: GMT + 2 Години

Нова тема   Відповісти