Сім'янин / The Family Man (2000) DTheaterRip 1080p 3xUkr/Eng | Sub Eng

Нові коментарі

Нова тема   Відповісти
Автор Повідомлення
Premer_Joker 
Частий відвідувач


З нами з: 22.01.13
Востаннє: 19.08.17
Повідомлень: 34

2016-12-10 12:14  
Сім'янин / The Family Man (2000) DTheaterRip 1080p 3xUkr/Eng | Sub Eng

Сім'янин / The Family Man (2000) DTheaterRip 1080p 3xUkr/Eng | Sub Eng



Жанр: мелодрама, містика, драма
Країна: США



Кінокомпанія: Universal Pictures, Beacon Communications, Riche-Ludwig Productions
Режисер: Бретт Ретнер
Актори: Ніколас Кейдж, Теа Леоні, Дон Чідл, Джеремі Півен, Сол Рубінек, Йозеф Зоммер, Макензі Вега та інші...

Сюжет:
Що б ви обрали: бути президентом великої інвестиційної компанії, жити в розкішній квартирі вартістю в мільярд доларів, їздити на останній моделі Ferrari і одночасно бути холостяком, або працювати продавцем автошин у "Великого Еда", купувати одяг у супермаркеті і пересуватися рідним передмістям на вмісткому й ще не дуже старому мінівені?
Не поспішайте з відповіддю, адже не дарма доля, в особі "обдовбаного" чорношкірого Діда Мороза, надає Джеку шанс спробувати обидва варіанти. І, повірте, не дивлячись на велику кількість комічних ситуацій, які тепер є невід'ємною частиною його життя, Джека чекає тяжкий вибір.


Тривалість: 02:06:34
Якість: DTheaterRip 1080p
Відео:
кодек:
розмір кадру: 1920 х 816
бітрейт: 9 400 кб/с

Аудіо # 1:
мова: українська
переклад: двоголосий закадровий
кодек: 5.1
бітрейт: 448 кб/с
Інфо про озвучення
Аудіо # 2:
мова: українська
переклад: багатоголосий закадровий | DVD | Lipton
кодек: 5.1
бітрейт: 448 кб/с
Інфо про озвучення
Цитата:
Lipton DVD був від Інтер-Фільму, а для них озвучила Студія ТВ+

Ролі озвучили: Ніколас Кейдж — Євген Пашин, ще один чоловічий і два жіночих
Аудіо # 3:
мова: українська
переклад: двоголосий закадровий
кодек: 5.1
бітрейт: 448 кб/с
Інфо про озвучення
Ролі озвучили: Юрій Ребрик і жіночий
Аудіо # 4:
мова: англійська
переклад: оригінал
кодек: 5.1
бітрейт: 576 кб/с

Субтитри:
мова: англійська
тип: програмні (м'які)
формат: *.srt
Info
General
Unique ID : 216170855252130116210724519279326911511 (0xA2A0FE08E7D0DE8984C42F9A37BBDC17)
Complete name : D:\Video\The Family Man (2000) DTheaterRip 1080p, [3xUkr, Eng] [Sub Eng].
Format :
Format version : Version 4 / Version 2
File size : 10.0 GiB
Duration : 2 h 6 min
Overall bit rate : 11.3 Mb/s
Movie name : The Family Man (2000) DTheaterRip 1080p, 3xUkr\Eng | Sub Eng
Encoded date : UTC 2016-12-10 08:51:42
Writing application : mkvmerge v9.6.0 ('Slave To Your Mind') 64bit
Writing library : libebml v1.3.4 + libmatroska v1.4.5

Video
ID : 1
Format : AVC
Format/Info : Advanced Video Codec
Format profile : [email protected]
Format settings, CABAC : Yes
Format settings, ReFrames : 5 frames
Codec ID : V_MPEG4/ISO/AVC
Duration : 2 h 6 min
Bit rate : 9 400 kb/s
Width : 1 920 pixels
Height : 816 pixels
Display aspect ratio : 2.35:1
Frame rate mode : Constant
Frame rate : 23.976 (24000/1001) FPS
Color space : YUV
Chroma subsampling : 4:2:0
Bit depth : 8 bits
Scan type : Progressive
Bits/(Pixel*Frame) : 0.250
Stream size : 8.31 GiB (83%)
Title : The Family Man (2000) DTheaterRip 1080p, 3xUkr\Eng | Sub Eng
Writing library : core 112 r1867+3 fa4d489
Encoding settings : cabac=1 / ref=5 / deblock=1:-3:-3 / analyse=0x3:0x133 / me=umh / subme=10 / psy=1 / fade_compensate=0.00 / psy_rd=1.00:0.10 / mixed_ref=1 / me_range=32 / chroma_me=1 / trellis=2 / 8x8dct=1 / cqm=0 / deadzone=21,11 / fast_pskip=0 / chroma_qp_offset=-3 / threads=3 / sliced_threads=0 / nr=0 / decimate=1 / interlaced=0 / constrained_intra=0 / fgo=0 / bframes=6 / b_pyramid=2 / b_adapt=2 / b_bias=0 / direct=3 / weightb=1 / open_gop=0 / weightp=2 / keyint=250 / keyint_min=23 / scenecut=40 / intra_refresh=0 / rc=2pass / mbtree=0 / bitrate=9400 / ratetol=1.0 / qcomp=0.60 / qpmin=10 / qpmax=51 / qpstep=4 / cplxblur=20.0 / qblur=0.5 / ip_ratio=1.40 / pb_ratio=1.30 / aq=1:1.00
Language : English
Default : Yes
Forced : No

Audio #1
ID : 2
Format : AC-3
Format/Info : Audio Coding 3
Mode extension : CM (complete main)
Format settings, Endianness : Big
Codec ID : A_AC3
Duration : 2 h 6 min
Bit rate mode : Constant
Bit rate : 448 kb/s
Channel(s) : 6 channels
Channel positions : Front: L C R, Side: L R, LFE
Sampling rate : 48.0 kHz
Frame rate : 31.250 FPS (1536 spf)
Bit depth : 16 bits
Compression mode : Lossy
Stream size : 405 MiB (4%)
Title : DVO [TET]
Language : Ukrainian
Default : Yes
Forced : Yes

Audio #2
ID : 3
Format : AC-3
Format/Info : Audio Coding 3
Mode extension : CM (complete main)
Format settings, Endianness : Big
Codec ID : A_AC3
Duration : 2 h 6 min
Bit rate mode : Constant
Bit rate : 448 kb/s
Channel(s) : 6 channels
Channel positions : Front: L C R, Side: L R, LFE
Sampling rate : 48.0 kHz
Frame rate : 31.250 FPS (1536 spf)
Bit depth : 16 bits
Compression mode : Lossy
Stream size : 405 MiB (4%)
Title : MVO [Lipton]
Language : Ukrainian
Default : No
Forced : No

Audio #3
ID : 4
Format : AC-3
Format/Info : Audio Coding 3
Mode extension : CM (complete main)
Format settings, Endianness : Big
Codec ID : A_AC3
Duration : 2 h 6 min
Bit rate mode : Constant
Bit rate : 448 kb/s
Channel(s) : 6 channels
Channel positions : Front: L C R, Side: L R, LFE
Sampling rate : 48.0 kHz
Frame rate : 31.250 FPS (1536 spf)
Bit depth : 16 bits
Compression mode : Lossy
Stream size : 405 MiB (4%)
Title : DVO [Noviy]
Language : Ukrainian
Default : No
Forced : Yes

Audio #4
ID : 5
Format : AC-3
Format/Info : Audio Coding 3
Mode extension : CM (complete main)
Format settings, Endianness : Big
Codec ID : A_AC3
Duration : 2 h 6 min
Bit rate mode : Constant
Bit rate : 576 kb/s
Channel(s) : 6 channels
Channel positions : Front: L C R, Side: L R, LFE
Sampling rate : 48.0 kHz
Frame rate : 31.250 FPS (1536 spf)
Bit depth : 16 bits
Compression mode : Lossy
Stream size : 521 MiB (5%)
Title : Original
Language : English
Default : No
Forced : No

Text
ID : 6
Format : UTF-8
Codec ID : S_TEXT/UTF8
Codec ID/Info : UTF-8 Plain Text
Duration : 1 h 58 min
Bit rate : 63 b/s
Count of elements : 1443
Stream size : 55.1 KiB (0%)
Language : English
Default : No
Forced : No
Скріншоти


Джерело:
Особиста оцінка: 8 - мені сподобалося

Rip by shurikello
Цитата:
Technomate, MAKAPOHHIK, ua2004 — запис сирців
Lan — синхронізація доріжки # 1 та вдосконалення доріжок #2-3
Воїн — українізація постера


Срібний реліз (на рейтинг впливає 50% завантаженого)
 Трекер:    Зареєстрований   

Завантажити / скачати фільм українською



відео для новачків



 Зареєстрований:   2016-12-10 12:14
 Розмір:   10.01 GB 
 Оцінка фільму:   10/10 (Голосів: 11)
   
Інші релізи
   Сім'янин / The Family Man (2000) | [480 x 204] Skillters  2 / 0   508 MB   2015-12-11 12:03 
   Сім'янин / The Family Man (2000) 720p 3xUkr/Eng | Sub Eng ratbol  8 / 0   6.95 GB   2012-12-13 12:05 
   Сім'янин / The Family Man (2000) 2xUkr/Eng | sub Eng RosXXX  22 / 4   2.19 GB   2011-12-07 14:23 
mzl 
Частий відвідувач


З нами з: 19.12.15
Востаннє: 17.08.17
Повідомлень: 34

2016-12-10 23:56  
рідко якому фільму ставлю 10, тут поставив без вагань
Deiv 
Свій


З нами з: 16.07.16
Востаннє: 18.08.17
Повідомлень: 97

2016-12-11 00:36  
Чому не срібло?
igor911 
Відео Гуртом
Відео Гуртом


З нами з: 18.01.08
Востаннє: 22.08.17
Повідомлень: 7321

2016-12-11 00:52  
Premer_Joker, скріншоти зроблені глюкавим VLC (1920 х 834) не відповідають оригінальному розміру кадру (1920 х 816). Використовуй інший програвач для зняття скрінів, наприклад MPC-HC (комбінація Alt-I, зберігай в png)
Pegass 
VIP


З нами з: 17.12.09
Востаннє: 22.08.17
Повідомлень: 516

2016-12-11 04:11  
Premer_Joker написано:
Якість: DTheaterRip 1080p

Цікаво чим він відрізняється від фільму на BluRay?

Premer_Joker 
Частий відвідувач


З нами з: 22.01.13
Востаннє: 19.08.17
Повідомлень: 34

2016-12-12 23:28  
igor911 написано:
Premer_Joker, скріншоти зроблені глюкавим VLC (1920 х 834) не відповідають оригінальному розміру кадру (1920 х 816). Використовуй інший програвач для зняття скрінів, наприклад MPC-HC (комбінація Alt-I, зберігай в png)

Вибачаюсь, забув

Додано через 1 годину 58 хвилин 14 секунд:

Pegass написано:
Цікаво чим він відрізняється від фільму на BluRay?

На диво, кращою якістю: На деяких трекерах пишуть, що нібито на тому Blu-ray звичайний апскейл...

Ваш часовий пояс: GMT + 2 Години

Нова тема   Відповісти