Аудитор / The Accountant (2016) 720p Ukr/Eng | Sub Eng

Нові коментарі

Нова тема   Відповісти
Автор Повідомлення
Anonymous 







2016-12-09 22:03  
Аудитор / The Accountant (2016) 720p Ukr/Eng | Sub Eng



Жанр: бойовик, трилер, драма, кримінальний
Країна: США



Кінокомпанія: Warner Bros., Electric City Entertainment, RatPac-Dune Entertainment
Режисер: Ґевін О’Коннор
Актори: Бен Аффлек, Анна Кендрік, Джон Бернтал, Джонатан Кімбол Сіммонс, Джон Літґоу, Джеффрі Тембор, Синтія Аддай-Робінсон, Джин Смарт, Елісон Райт, Енді Умберґер

Сюжет:
Це історія математичного генія Крістіана Вулффа, який перевіряє бухгалтерію небезпечних злочинних організацій світу. Коли за ним починає стежити відділ з боротьби зі злочинністю Міністерства фінансів США, Крістіан вирішує знайти собі законослухняного клієнта, щоб збити правоохоронців зі сліду. Він береться провести аудит в компанії з виготовлення робототехніки, в документах якої знаходить відмінності в кілька мільйонів доларів. Але як тільки Крістіан наштовхується на слід грошей, в справі з'являються жертви.


Тривалість: 02:07:54
Якість: 720p
Відео:
кодек:
розмір кадру: 1280 х 536
бітрейт: 5649 кб/с

Аудіо # 1:
мова: українська
переклад: професійний дубльований | Postmodern
кодек: 2.0
бітрейт: 192 кб/с
Інформація про дубляж
Переклад: Олег Колесніков
Режисер дубляжу: Катерина Брайковська
Звукорежисер: Олександр Мостовенко
Ролі дублювали: Андрій Твердак, Євген Пашин, Катерина Брайковська, Катерина Качан, Дмитро Гаврилов, Олександр Ігнатуша, Віктор Григор'єв, Юрій Кудрявець та інші.

Фільм дубльовано компанією Postmodern
Аудіо # 2:
мова: англійська
переклад: оригінал
кодек: 5.1
бітрейт: 640 кб/с

Субтитри # 1-2:
мова: англійська (повні, SDH)
тип: програмні (м'які)
формат: *.srt

Збережено оригінальні розділи
Info
Код:
Format                      :
Format version              : Version 4 / Version 2
File size                   : 5.79 GiB
Duration                    : 2 h 7 min
Overall bit rate            : 6 484 kb/s

Video
ID                          : 1
Format                      : AVC
Format/Info                 : Advanced Video Codec
Format profile              : [email protected]
Format settings, CABAC      : Yes
Format settings, ReFrames   : 12 frames
Codec ID                    : V_MPEG4/ISO/AVC
Duration                    : 2 h 7 min
Bit rate                    : 5 649 kb/s
Width                       : 1 280 pixels
Height                      : 536 pixels
Display aspect ratio        : 2.40:1
Frame rate mode             : Constant
Frame rate                  : 23.976 (23976/1000) FPS
Color space                 : YUV
Chroma subsampling          : 4:2:0
Bit depth                   : 8 bits
Scan type                   : Progressive
Bits/(Pixel*Frame)          : 0.343
Stream size                 : 5.05 GiB (87%)
Title                       : Аудитор / The Accountant (2016) 720p [剑心@HDS]
Writing library             : core 148 r2705+45 bdacf7a 7mod [[email protected] X86_64]
Encoding settings           : cabac=1 / ref=12 / deblock=1:-3:-3 / analyse=0x3:0x113 / me=umh / subme=11 / psy=1 / fade_compensate=0.00 / psy_rd=1.00:0.05 / mixed_ref=1 / me_range=32 / chroma_me=1 / trellis=2 / 8x8dct=1 / cqm=0 / deadzone=21,11 / fast_pskip=0 / chroma_qp_offset=-2 / threads=28 / lookahead_threads=4 / sliced_threads=0 / nr=0 / decimate=1 / interlaced=0 / bluray_compat=0 / constrained_intra=0 / fgo=0 / bframes=8 / b_pyramid=2 / b_adapt=2 / b_bias=0 / direct=3 / weightb=1 / open_gop=0 / weightp=2 / keyint=250 / keyint_min=23 / scenecut=40 / intra_refresh=0 / rc=crf / mbtree=0 / crf=17.5000 / qcomp=0.60 / qpmin=0:0:0 / qpmax=69:69:69 / qpstep=4 / ip_ratio=1.40 / pb_ratio=1.30 / aq=4:0.90 / aq-sensitivity=10.00 / aq-factor=1.00:1.00:1.00 / aq2=0 / aq3=0
Language                    : English
Default                     : Yes
Forced                      : No

Audio #1
ID                          : 2
Format                      : AC-3
Format/Info                 : Audio Coding 3
Mode extension              : CM (complete main)
Format settings, Endianness : Big
Codec ID                    : A_AC3
Duration                    : 2 h 7 min
Bit rate mode               : Constant
Bit rate                    : 192 kb/s
Channel(s)                  : 2 channels
Channel positions           : Front: L R
Sampling rate               : 48.0 kHz
Frame rate                  : 31.250 FPS (1536 spf)
Bit depth                   : 16 bits
Compression mode            : Lossy
Stream size                 : 176 MiB (3%)
Title                       : Dub, 2.0 192 Kbps [Hurtom-Covenant]
Language                    : Ukrainian
Default                     : Yes
Forced                      : Yes

Audio #2
ID                          : 3
Format                      : AC-3
Format/Info                 : Audio Coding 3
Mode extension              : CM (complete main)
Format settings, Endianness : Big
Codec ID                    : A_AC3
Duration                    : 2 h 7 min
Bit rate mode               : Constant
Bit rate                    : 640 kb/s
Channel(s)                  : 6 channels
Channel positions           : Front: L C R, Side: L R, LFE
Sampling rate               : 48.0 kHz
Frame rate                  : 31.250 FPS (1536 spf)
Bit depth                   : 16 bits
Compression mode            : Lossy
Stream size                 : 585 MiB (10%)
Title                       : Original, 5.1 640 Kbps
Language                    : English
Default                     : No
Forced                      : No

Text #1
ID                          : 4
Format                      : UTF-8
Codec ID                    : S_TEXT/UTF8
Codec ID/Info               : UTF-8 Plain Text
Duration                    : 1 h 58 min
Bit rate                    : 54 b/s
Count of elements           : 1504
Stream size                 : 47.5 KiB (0%)
Title                       : Eng full
Language                    : English
Default                     : No
Forced                      : No

Text #2
ID                          : 5
Format                      : UTF-8
Codec ID                    : S_TEXT/UTF8
Codec ID/Info               : UTF-8 Plain Text
Duration                    : 1 h 59 min
Bit rate                    : 59 b/s
Count of elements           : 1700
Stream size                 : 52.3 KiB (0%)
Title                       : Eng SDH
Language                    : English
Default                     : No
Forced                      : No

Menu
00:00:00.000                : en:00:00:00.000
00:13:01.447                : en:00:13:01.447
00:20:36.277                : en:00:20:36.277
00:29:30.394                : en:00:29:30.394
00:38:44.656                : en:00:38:44.656
00:49:33.679                : en:00:49:33.679
01:00:05.435                : en:01:00:05.435
01:13:39.707                : en:01:13:39.707
01:25:57.069                : en:01:25:57.069
01:39:15.658                : en:01:39:15.658
01:54:31.156                : en:01:54:31.156
02:01:40.251                : en:02:01:40.251



Український звук придбано завдяки темі "Контент для придбання"



Джерело: &
Подяка за українську доріжку п.Covenant

ЗАЛИШАЙТЕСЬ ЯКОМОГА ДОВШЕ НА РОЗДАЧІ
ЗАВАНТАЖИВ САМ - ДАЙ ЗАВАНТАЖИТИ ІНШИМ!


 Трекер:    Зареєстрований   

Завантажити / скачати фільм українською



відео для новачків



 Зареєстрований:   2016-12-25 19:58
 Розмір:   5.79 GB 
 Оцінка фільму:   8.7/10 (Голосів: 105)
   
Інші релізи
   Аудитор / The Accountant (2016) AVC Ukr/Eng | Sub Eng 11FrYkT  15 / 0   2.69 GB   2017-10-18 20:10 
   Аудитор / The Accountant (2016) Covenant  12 / 1   1.45 GB   2017-10-17 16:52 
   Аудитор / The Accountant (2016) Ukr/Eng Gelios  27 / 0   2.18 GB   2016-12-25 16:44 
   Аудитор / The Accountant (2016) Remux 1080p Ukr/Eng │ Sub Eng romiv  7 / 0   27.03 GB   2016-12-25 13:19 
   Аудитор / The Accountant (2016) 1080p Ukr/Eng │ Sub Eng Electroz  14 / 0   13.64 GB   2016-12-25 12:48 
380966057693 
Свій


З нами з: 15.01.14
Востаннє: 10.12.17
Повідомлень: 105

2016-12-09 22:32  
Ще один шедевр Аффлека. З задоволенням перегляну
Kovex 
Відео Гуртом - підтримка та поширення
Відео Гуртом - підтримка та поширення


З нами з: 01.09.09
Востаннє: 08.12.17
Повідомлень: 436

2016-12-12 04:08  
Цікавий фільм, дивились із задоволенням.
EduardGol 
Поважний учасник


З нами з: 03.10.13
Востаннє: 10.12.17
Повідомлень: 171

2016-12-18 06:42  
Я, здається, до цього не бачив таких хороших фільмів з Аффлеком. Можливо варто приділити цьому актору особливу увагу.
Pan_Kapelyuh 
Новенький


З нами з: 15.11.15
Востаннє: 22.10.17
Повідомлень: 11

2016-12-24 14:53  
Просто неймовірно! Сподобалось все в цьому фільмі. Аффлек на висоті!
Рекомендую до перегляду. 9,5/10

mankurt 
Новенький


З нами з: 25.10.09
Востаннє: 17.05.17
Повідомлень: 12

2016-12-24 19:52  
Фільм сподобався 9 з 10. Раджу до перегляду!
Anonymous 







2016-12-25 12:42  
Реліз оновлено!

"золото" на тиждень

Додано через 2 хвилини 56 секунд:

Оновлено відеоряд, укр.звук було замінено на версію під - він відрізняється від попередньої версії по наповненню.

Anonymous 







2016-12-25 20:01  
Реліз оновлено!
Тимчасовий замінено якіснішим

AI_Avenger 
Новенький


З нами з: 31.07.13
Востаннє: 10.12.17
Повідомлень: 10

2016-12-26 12:41  
Дякую, глянемо. Мені ще з Аффлеком сподобалося "Операція Арго" (звичайно ж, з українським дубляжем, "Арго тобі в печінку!" Happy)
Ще "Час розплати" (Paycheck) теж гарний.

[email protected] 
Частий відвідувач


З нами з: 05.02.15
Востаннє: 10.12.17
Повідомлень: 44

2016-12-26 16:09  
Дуже сподобався фільм. Лаконічний і, що тепер рідкість, з хепі ендом)
aVa_W 
Новенький


З нами з: 21.04.16
Востаннє: 09.12.17
Повідомлень: 24

2016-12-28 20:03  
Дякую велике,довго чекав на реліз,і з наступаючими!
afdaser 
Свій


З нами з: 21.09.10
Востаннє: 09.12.17
Повідомлень: 112

2017-01-01 21:38  
шановні, це режисерська версія? і чи буда вона випущена взагалі.
Anonymous 







2017-01-02 00:03  
afdaser, це не режисерська версія. Гадки не маю чи планується та версія взагалі, але не уявляю, навіщо цьому бойовичку вона потрібна.
ivan vyrvyvuho 
VIP


З нами з: 19.08.12
Востаннє: 10.12.17
Повідомлень: 952

2017-01-03 19:44  
Нормально знятий фільм, але дуже передбачувальний. Дещо нагадує Місто 2010 року з Афлеком в головній ролі: чергова стрічка про сучасного Робін Гуда. Співчуваєш гг, переживаєш за нього, режисер постарався та й Афлек теж, хочеться дивитися й дочекатися чим завершиться стрічка. 7/10
Відьмачечок 
Свій


З нами з: 17.05.11
Востаннє: 08.12.17
Повідомлень: 68

2017-01-04 12:43  
Добротний фільм, думаю насамперед завдяки акторам та непоганому сценарію, хоч трішки оригінальності. Хоча можна було зняти чергового "праведника"
Corbie_ua 
Новенький


З нами з: 07.12.15
Востаннє: 07.12.17
Повідомлень: 11

2017-03-26 18:54  
Гарний фільм!!!! Один з найкращих подібного плану за останній час!))) Рекомендую!!!!
demetrius52 
Свій


З нами з: 02.04.17
Востаннє: 10.12.17
Повідомлень: 92

2017-04-03 15:12  
Anonymous
https://toloka.to/t78198, додайте, будь-ласка, інформацію про дубляж.

Додано через 19 хвилин 21 секунду:

дякую)

Anonymous 







2017-10-18 20:33  
незабаром реліз буде оновлено якісною стереодоріжкою.
Ваш часовий пояс: GMT + 2 Години

Нова тема   Відповісти