Школа монстрів: Великий монстровий риф / Monster High: Great Scarrier Reef (2016) 720p Ukr/Eng | Sub Eng

Нові коментарі

Нова тема   Відповісти
Автор Повідомлення
Anonymous 







2016-12-09 21:42  
Школа монстрів: Великий монстровий риф / Monster High: Great Scarrier Reef (2016) 720p Ukr/Eng | Sub Eng



Жанр: анімація, сімейний
Країна: США



Кінокомпанія: Mattel Playground Productions
Режисер: Вільям Лау / William Lau, Джан Фалкенштейн / Jun Falkenstein
Актори: Лора Бейлі, Кем Кларк, Дебі Дерріберрі, Ерін Фіцджеральд, Jonquil Goode, Тодд Хаберкорн, Міссі Хейл, Кейт Хіггінс, Венді Лі, Оду Паден та інші

Сюжет:
Вечірка року обіцяла бути дуже цікавою і незабутньою. Саме так думали Лагуна Блю та її подружки, вирушаючи туди. Але в один момент щось пішло не так і шкільний басейн поглинув їх у морську безодню. Подружки опиняються у водах Великого кошмарного рифу в образі русалок, в яких їх перетворила дочка Посейдона - Посі Рі. Щоб повернутися назад Лагуна Блю повинна побороти свій найбільший страх. Для цього їй необхідно поглянути в очі злісному Кракену. Але завдяки дружбі зробити це буде не так вже й складно.


Тривалість: 01:11:34
Якість: 720p
Відео:
кодек:
розмір кадру: 1280 х 720
бітрейт: 5000 Кбіт/с

Аудіо # 1:
мова: українська
переклад: професійний дубльований
кодек: 2.0
бітрейт: 192 Кбіт/с

Аудіо # 2:
мова: англійська
переклад: оригінал
кодек: 5.1
бітрейт: 640 Кбіт/с

Субтитри:
мова: англійська
тип: програмні (м'які)
формат: *.srt
Info
Код:
Format                      :
Format version              : Version 4 / Version 2
File size                   : 2.92 GiB
Duration                    : 1 h 11 min
Overall bit rate            : 5 834 kb/s

Video
ID                          : 1
Format                      : AVC
Format/Info                 : Advanced Video Codec
Format profile              : [email protected]
Format settings, CABAC      : Yes
Format settings, ReFrames   : 9 frames
Codec ID                    : V_MPEG4/ISO/AVC
Duration                    : 1 h 11 min
Bit rate                    : 5 000 kb/s
Width                       : 1 280 pixels
Height                      : 720 pixels
Display aspect ratio        : 16:9
Frame rate mode             : Constant
Frame rate                  : 23.976 (24000/1001) FPS
Color space                 : YUV
Chroma subsampling          : 4:2:0
Bit depth                   : 8 bits
Scan type                   : Progressive
Bits/(Pixel*Frame)          : 0.226
Stream size                 : 2.50 GiB (86%)
Title                       : Школа монстрів: Великий монстровий риф / Monster High: Great Scarrier Reef (2016) 720p [WiKi]
Writing library             : core 129 r2245 bc13772
Encoding settings           : cabac=1 / ref=9 / deblock=1:-3:-3 / analyse=0x3:0x133 / me=umh / subme=11 / psy=1 / psy_rd=0.60:0.00 / mixed_ref=1 / me_range=32 / chroma_me=1 / trellis=2 / 8x8dct=1 / cqm=0 / deadzone=21,11 / fast_pskip=0 / chroma_qp_offset=-2 / threads=6 / lookahead_threads=1 / sliced_threads=0 / nr=0 / decimate=1 / interlaced=0 / bluray_compat=0 / constrained_intra=0 / bframes=10 / b_pyramid=2 / b_adapt=2 / b_bias=0 / direct=3 / weightb=1 / open_gop=0 / weightp=2 / keyint=250 / keyint_min=23 / scenecut=40 / intra_refresh=0 / rc=2pass / mbtree=0 / bitrate=5000 / ratetol=1.0 / qcomp=0.70 / qpmin=0 / qpmax=69 / qpstep=4 / cplxblur=20.0 / qblur=0.5 / ip_ratio=1.40 / pb_ratio=1.30 / aq=1:0.80
Language                    : English
Default                     : Yes
Forced                      : No

Audio #1
ID                          : 2
Format                      : AC-3
Format/Info                 : Audio Coding 3
Mode extension              : CM (complete main)
Format settings, Endianness : Big
Codec ID                    : A_AC3
Duration                    : 1 h 11 min
Bit rate mode               : Constant
Bit rate                    : 192 kb/s
Channel(s)                  : 2 channels
Channel positions           : Front: L R
Sampling rate               : 48.0 kHz
Frame rate                  : 31.250 FPS (1536 spf)
Bit depth                   : 16 bits
Compression mode            : Lossy
Stream size                 : 98.3 MiB (3%)
Title                       : Dub [TET] 2.0 912 Kbps [Hurtom-drop_plz,xSlim]
Language                    : Ukrainian
Default                     : Yes
Forced                      : Yes

Audio #2
ID                          : 3
Format                      : AC-3
Format/Info                 : Audio Coding 3
Mode extension              : CM (complete main)
Format settings, Endianness : Big
Codec ID                    : A_AC3
Duration                    : 1 h 11 min
Bit rate mode               : Constant
Bit rate                    : 640 kb/s
Channel(s)                  : 6 channels
Channel positions           : Front: L C R, Side: L R, LFE
Sampling rate               : 48.0 kHz
Frame rate                  : 31.250 FPS (1536 spf)
Bit depth                   : 16 bits
Compression mode            : Lossy
Stream size                 : 328 MiB (11%)
Title                       : Original, 5.1 640 Kbps
Language                    : English
Default                     : No
Forced                      : No

Text #1
ID                          : 4
Format                      : UTF-8
Codec ID                    : S_TEXT/UTF8
Codec ID/Info               : UTF-8 Plain Text
Duration                    : 1 h 11 min
Bit rate                    : 57 b/s
Count of elements           : 1007
Stream size                 : 29.7 KiB (0%)
Title                       : Eng full
Language                    : English
Default                     : No
Forced                      : No

Text #2
ID                          : 5
Format                      : UTF-8
Codec ID                    : S_TEXT/UTF8
Codec ID/Info               : UTF-8 Plain Text
Duration                    : 1 h 11 min
Bit rate                    : 64 b/s
Count of elements           : 1204
Stream size                 : 33.7 KiB (0%)
Title                       : Eng SDH
Language                    : English
Default                     : No
Forced                      : No


Джерело: &



ЗАЛИШАЙТЕСЬ ЯКОМОГА ДОВШЕ НА РОЗДАЧІ
ЗАВАНТАЖИВ САМ - ДАЙ ЗАВАНТАЖИТИ ІНШИМ!


 Трекер:    Зареєстрований   

Завантажити / скачати мультфільм українською



відео для новачків



 Зареєстрований:   2016-12-09 23:52
 Розмір:   2.92 GB 
 Оцінка мультфільму:   2.7/10 (Голосів: 13)
   
bot 
робот


З нами з: 30.09.07
Востаннє: 26.05.05
Повідомлень: 17408

2016-12-09 23:52  
Тему перенесено з Анонси релізів до форуму Мультфільми в HD


igor911

Ваш часовий пояс: GMT + 2 Години

Нова тема   Відповісти