Інферно / Inferno (2016) 720p Ukr/Eng | Sub Ukr/Eng

Нові коментарі

Нова тема   Відповісти
Автор Повідомлення
Anonymous 







2016-12-09 21:25  
Інферно / Inferno (2016) 720p Ukr/Eng | Sub Ukr/Eng



Альтернативні українські постери














повнорозмірні зображення відкриються по кліку (з натиснутим CTRL чи кліком середньою кнопкою мишки - у новій вкладці)


Жанр: бойовик, трилер, драма, кримінальний, детектив, пригодницький
Країна: США, Угорщина



Кінокомпанія: Columbia Pictures, Sony Pictures Studios, Imagine Entertainment, LStar Capital, Mid Atlantic Films
Режисер: Рон Говард / Ron Howard
Актори: Том Генкс / Tom Hanks, Фелісіті Джонс / Felicity Jones, Бен Фостер / Ben Foster, Іррфан Кхан / Irrfan Khan, Омар Сі / Omar Sy, Сідсе Бабетт Кнудсен / Sidse Babett Knudsen, Ана Улару / Ana Ularu, Іда Дарвіш / Ida Darvish, Ката Сарбо / Kata Sarbo, Аттіла Арпа / Attila Arpa та інші

Сюжет:
Професор релігійної симвології Роберт Ленґдон прибуває до Флоренції, і одразу опиняється в круговерті загадкових подій, котрі можуть привести людство до загибелі. І лише розгадка таємниці, зашифрованої в безсмертній поемі Данте здатна відвернути невідворотнє...

Офіційний трейлер:


Рейтинг MPAA: PG-13 - дітям до 13 років перегляд не бажаний
Вікова категорія: 12+

Тривалість: 02:01:35
Якість: 720p
Відео:
кодек:
розмір кадру: 1280 х 692
бітрейт: 10,1 Мбіт/с [crf=16.5]

Аудіо # 1:
мова: українська
переклад: професійний дубльований | студія LeDoyen
кодек: 2.0
бітрейт: 192 кб/с
Інформація про дубляж
Переклад: Олег Колесніков
У дубляжі використано цитати з перекладу "Божественої комедії" Данте Євгена Дроб'язка
Режисер дубляжу: Анна Пащенко
Звукорежисер: Альона Шеманович
Звукорежисер перезапису: Олена Лапіна
Координатор проекту: Аліна Гаєвська
Ролі дублювали: Євген Пашин, Марина Локтіонова, Андрій Твердак, Наталя Задніпровська, Анатолій Зіновенко, Дмитро Гаврилов, Катерина Башкіна-Зленко та інші.

Фільм надано компанією Columbia Pictures. Дубльовано та зміксовано студією LeDoyen на замовлення компанії B&H Film Distribution
Аудіо # 2:
мова: англійська
переклад: оригінал
кодек: 5.1
бітрейт: 640 кб/с

Субтитри # 1-2:
мова: українська (форсовані, повні)
тип: програмні (м'які)
формат: *.srt

Субтитри #3-6:
мова: англійська (форсовані, повні, SDH)
тип: програмні (м'які)
формат: *.srt

Збережено оригінальні розділи.
Info
Код:
Format                      :
Format version              : Version 4 / Version 2
File size                   : 9.28 GiB
Duration                    : 2 h 1 min
Overall bit rate            : 10.9 Mb/s

Video
ID                          : 1
Format                      : AVC
Format/Info                 : Advanced Video Codec
Format profile              : [email protected]
Format settings, CABAC      : Yes
Format settings, ReFrames   : 9 frames
Codec ID                    : V_MPEG4/ISO/AVC
Duration                    : 2 h 1 min
Bit rate                    : 10.1 Mb/s
Width                       : 1 280 pixels
Height                      : 692 pixels
Display aspect ratio        : 1.85:1
Frame rate mode             : Constant
Frame rate                  : 23.976 (24000/1001) FPS
Color space                 : YUV
Chroma subsampling          : 4:2:0
Bit depth                   : 8 bits
Scan type                   : Progressive
Bits/(Pixel*Frame)          : 0.475
Stream size                 : 8.57 GiB (92%)
Title                       : Інферно / Inferno (2016) 720p [ExKinoRay]
Writing library             : core 148 r2744kMod b97ae06
Encoding settings           : cabac=1 / ref=9 / deblock=1:-3:-3 / analyse=0x3:0x133 / me=umh / subme=10 / psy=1 / fade_compensate=0.00 / psy_rd=1.00:0.00 / mixed_ref=1 / me_range=24 / chroma_me=1 / trellis=2 / 8x8dct=1 / cqm=0 / deadzone=21,11 / fast_pskip=0 / chroma_qp_offset=-2 / threads=56 / lookahead_threads=5 / sliced_threads=0 / nr=0 / decimate=0 / interlaced=0 / bluray_compat=0 / constrained_intra=0 / bframes=7 / b_pyramid=2 / b_adapt=2 / b_bias=0 / direct=3 / weightb=1 / open_gop=0 / weightp=2 / keyint=250 / keyint_min=23 / scenecut=40 / intra_refresh=0 / rc_lookahead=60 / rc=crf / mbtree=0 / crf=16.5000 / qcomp=0.60 / qpmin=0 / qpmax=69 / qpstep=4 / vbv_maxrate=62500 / vbv_bufsize=78125 / crf_max=0.0 / nal_hrd=none / filler=0 / ip_ratio=1.30 / pb_ratio=1.20 / aq=3:0.80
Language                    : English
Default                     : Yes
Forced                      : No
Color range                 : Limited
Matrix coefficients         : BT.709

Audio #1
ID                          : 2
Format                      : AC-3
Format/Info                 : Audio Coding 3
Mode extension              : CM (complete main)
Format settings, Endianness : Big
Codec ID                    : A_AC3
Duration                    : 2 h 1 min
Bit rate mode               : Constant
Bit rate                    : 192 kb/s
Channel(s)                  : 2 channels
Channel positions           : Front: L R
Sampling rate               : 48.0 kHz
Frame rate                  : 31.250 FPS (1536 spf)
Bit depth                   : 16 bits
Compression mode            : Lossy
Stream size                 : 167 MiB (2%)
Title                       : Dub [LeDoyen] 2.0 192 Kbps [iTunes]
Language                    : Ukrainian
Default                     : Yes
Forced                      : Yes

Audio #2
ID                          : 3
Format                      : AC-3
Format/Info                 : Audio Coding 3
Mode extension              : CM (complete main)
Format settings, Endianness : Big
Codec ID                    : A_AC3
Duration                    : 2 h 1 min
Bit rate mode               : Constant
Bit rate                    : 640 kb/s
Channel(s)                  : 6 channels
Channel positions           : Front: L C R, Side: L R, LFE
Sampling rate               : 48.0 kHz
Frame rate                  : 31.250 FPS (1536 spf)
Bit depth                   : 16 bits
Compression mode            : Lossy
Stream size                 : 557 MiB (6%)
Title                       : Original, 5.1 640 Kbps
Language                    : English
Default                     : No
Forced                      : No

Text #1
ID                          : 4
Format                      : UTF-8
Codec ID                    : S_TEXT/UTF8
Codec ID/Info               : UTF-8 Plain Text
Duration                    : 1 h 36 min
Bit rate                    : 3 b/s
Count of elements           : 46
Stream size                 : 2.50 KiB (0%)
Title                       : Ukr forced
Language                    : Ukrainian
Default                     : Yes
Forced                      : Yes

Text #2
ID                          : 5
Format                      : UTF-8
Codec ID                    : S_TEXT/UTF8
Codec ID/Info               : UTF-8 Plain Text
Duration                    : 1 h 55 min
Bit rate                    : 89 b/s
Count of elements           : 1398
Stream size                 : 75.0 KiB (0%)
Title                       : Ukr full [iTunes]
Language                    : Ukrainian
Default                     : No
Forced                      : No

Text #3
ID                          : 6
Format                      : UTF-8
Codec ID                    : S_TEXT/UTF8
Codec ID/Info               : UTF-8 Plain Text
Duration                    : 57 min 24 s
Bit rate                    : 2 b/s
Count of elements           : 29
Stream size                 : 1.01 KiB (0%)
Title                       : Eng forced
Language                    : English
Default                     : No
Forced                      : No

Text #4
ID                          : 7
Format                      : UTF-8
Codec ID                    : S_TEXT/UTF8
Codec ID/Info               : UTF-8 Plain Text
Duration                    : 1 h 55 min
Bit rate                    : 55 b/s
Count of elements           : 1360
Stream size                 : 46.5 KiB (0%)
Title                       : Eng full [iTunes]
Language                    : English
Default                     : No
Forced                      : No

Text #5
ID                          : 8
Format                      : UTF-8
Codec ID                    : S_TEXT/UTF8
Codec ID/Info               : UTF-8 Plain Text
Duration                    : 1 h 57 min
Bit rate                    : 62 b/s
Count of elements           : 1665
Stream size                 : 53.9 KiB (0%)
Title                       : Eng SDH
Language                    : English
Default                     : No
Forced                      : No

Menu
00:00:00.000                : en:00:00:00.000
00:04:13.545                : en:00:04:13.545
00:12:32.919                : en:00:12:32.919
00:23:43.005                : en:00:23:43.005
00:36:03.161                : en:00:36:03.161
00:51:11.652                : en:00:51:11.652
00:59:16.595                : en:00:59:16.595
01:01:42.908                : en:01:01:42.908
01:07:42.517                : en:01:07:42.517
01:13:25.234                : en:01:13:25.234
01:20:02.256                : en:01:20:02.256
01:24:37.364                : en:01:24:37.364
01:31:25.271                : en:01:31:25.271
01:35:42.111                : en:01:35:42.111
01:40:51.128                : en:01:40:51.128
01:52:27.908                : en:01:52:27.908


Джерело: & 700й реліз


 Трекер:    Зареєстрований   

Завантажити / скачати фільм українською



відео для новачків



 Зареєстрований:   2017-01-10 20:29
 Розмір:   9.28 GB 
 Оцінка фільму:   7.8/10 (Голосів: 78)
   
Інші релізи
   Інферно / Inferno (2016) Covenant  43 / 2   1.45 GB   2017-01-10 23:26 
   Інферно / Inferno (2016) 1080p Ukr/Eng | Sub Ukr/Eng Electroz  16 / 0   14.75 GB   2017-01-10 14:06 
   Інферно / Inferno (2016) Remux 1080p Ukr/Eng | Sub Ukr/Eng staf777  10 / 0   23.15 GB   2017-01-09 16:48 
   Інферно / Inferno (2016) AVC Ukr/Eng | Sub Ukr/Eng 11FrYkT  42 / 0   2.6 GB   2017-01-06 20:02 
   Інферно / Inferno (2016) Ukr/Eng | Sub Ukr/Eng Gelios  31 / 0   2.18 GB   2017-01-06 19:41 
olthik 
Свій


З нами з: 02.03.16
Востаннє: 25.05.17
Повідомлень: 63

2016-12-10 16:59  
Дуже подобаються фільми з Генксом. На Інферно давно чекав. Стягую і роздаю.
Косячок справжній 
VIP


З нами з: 29.02.12
Востаннє: 27.05.17
Повідомлень: 914

2016-12-11 20:17  
Навіть гірше за Код да Вінчі.
elenaras 
Новенький


З нами з: 11.09.14
Востаннє: 22.05.17
Повідомлень: 24

2016-12-14 10:20  
Очікували чогось більшого від цього фільму. Нагадує дитячу гру з пошуком підказок.
Anonymous 







2016-12-24 14:03  
Реліз оновлено!
Замінено відеоряд на з iTunes'у, додано українські форсовані субтитри

"золото" на тиждень

mankurt 
Новенький


З нами з: 25.10.09
Востаннє: 17.05.17
Повідомлень: 12

2016-12-24 20:56  
Від фільму нічого не чекав і як результат нічого не отримав - нуднувато, додивився до кінця сам не знаю як Happy 5/10
LinaAlex 
Новенький


З нами з: 10.10.16
Востаннє: 27.05.17
Повідомлень: 14

2016-12-28 19:26  
Дякую за реліз. Сподіваюсь, фільм вартий перегляду на вечір.
Anonymous 







2017-01-05 04:36  
Реліз оновлено!
Замінено український звук на якісніший з iTunes'у, додано українські повні та замінено форсовані субтитри

"золото" на тиждень

kill_1 
Свій


З нами з: 11.07.10
Востаннє: 25.05.17
Повідомлень: 92

2017-01-05 12:48  
це найслабшна частина. кінець фільму змінений на хепі енд, колив книжці цей вірус випустили і ще повно ляпів =(

П.С
Хто має час краще почитайте книгу в рази кращі враження получете ніж від цього фільму.

Anonymous 







2017-01-10 20:48  
Реліз оновлено!
Замінено відеоряд на

"золото" на тиждень

Corbie_ua 
Новенький


З нами з: 07.12.15
Востаннє: 25.05.17
Повідомлень: 7

2017-02-21 18:48  
Зі всього циклу найгірший!!! На першому місці,як на мене "Ангели та демони" на другому "Код да Вінчи"
Ну а найголовніше: Том Хенкс the best)))

Ваш часовий пояс: GMT + 2 Години

Нова тема   Відповісти