Чого хоче дівчина / What a Girl Wants (2003) HDTV 1080i Ukr/Eng | Sub Eng

Нові коментарі

Нова тема   Відповісти
Останній раз роздавалося Іван Антонович (2017-08-18)
Автор Повідомлення
Pegass 
VIP


З нами з: 17.12.09
Востаннє: 19.08.17
Повідомлень: 513

2016-12-09 14:11  
Чого хоче дівчина / What a Girl Wants (2003) HDTV 1080i Ukr/Eng | Sub Eng

Чого хоче дівчина / What a Girl Wants (2003) HDTV 1080i Ukr/Eng | Sub Eng


Інший постер
Чого хоче дівчина / What a Girl Wants (2003) HDTV 1080i Ukr/Eng | Sub Eng
Жанр: комедія, драма, сімейний, романтичний
Країна: США



Кінокомпанія: Warner Bros., Gaylord Films, DiNovi Pictures
Режисер: Дені Гордон
Актори: Аманда Байнс, Колін Ферт, Келлі Престон, Олівер Джеймс, Анна Ченселор, Ейлін Аткінс.

Сюжет:
Дафна, сімнадцятирічна, вільна дівчина, від'їжджає з Нью-Йорку до Англії на пошук свого батька, якого вона ніколи не бачила. Та виявляється, що тато насправді є світським аристократом та відомим політиком.
Тож тепер Дафна має стати своєю у великосвітському оточенні батька, занурившись з головою в нескінченну чергу богемних прийомів, модних показів та вечірок. Але солодке життя затьмарюється низкою перепон. Дафна має оволодіти тонкощами етикету, налагодити стосунки зі зведеною сестрою і, найголовніше, залишитись вірною своїм ідеалам.
І вона блискуче порається з поставленою метою зі спритністю та винахідливістю, яким би позаздрила перша-ліпша юна леді.


Тривалість: 01:44:54
Якість: HDTV 1080i
Відео:
кодек:
розмір кадру: 1920 х 1080
бітрейт: 13237 кб/с

Аудіо # 1:
мова: українська
переклад: багатоголосий закадровий
кодек: 2.0
бітрейт: 192 кб/с

Аудіо # 2:
мова: англійська
переклад: оригінал
кодек: 5.1
бітрейт: 384 кб/с

Джерело озвучення:


Субтитри:
мова: англійська
тип: програмні (м'які)
формат: *.srt
Info
General
Unique ID : 197599861117055436281965496502350457430 (0x94A85954FF5F1C75A524DD98DABF2A56)
Complete name : E:\What a Girl Wants (2003) HDTV 1080i [Ukr,Eng Sub.Eng] [Hurtom].
Format :
Format version : Version 4 / Version 2
File size : 10.1 GiB
Duration : 1h 44mn
Overall bit rate mode : Variable
Overall bit rate : 13.8 Mbps
Encoded date : UTC 2016-12-09 09:19:36
Writing application : mkvmerge v6.1.0 ('Old Devil') built on Mar 2 2013 14:32:37
Writing library : libebml v1.3.0 + libmatroska v1.4.0

Video
ID : 1
Format : MPEG Video
Format version : Version 2
Format profile : [email protected]
Format settings, BVOP : Yes
Format settings, Matrix : Default
Format settings, GOP : Variable
Codec ID : V_MPEG2
Codec ID/Info : MPEG 1 or 2 Video
Bit rate mode : Variable
Bit rate : 13.0 Mbps
Maximum bit rate : 18.0 Mbps
Width : 1 920 pixels
Height : 1 080 pixels
Display aspect ratio : 16:9
Frame rate mode : Variable
Original frame rate : 29.970 fps
Color space : YUV
Chroma subsampling : 4:2:0
Bit depth : 8 bits
Compression mode : Lossy
Time code of first frame : 00:00:00;00
Time code source : Group of pictures header
GOP, Open/Closed : Open
GOP, Open/Closed of first f : Closed
Title : Чого хоче дівчина / What a Girl Wants (2003) HDTV 1080i [Ukr,Eng Sub.Eng] [Hurtom]
Language : English
Default : Yes
Forced : No

Audio #1
ID : 2
Format : AC-3
Format/Info : Audio Coding 3
Mode extension : CM (complete main)
Format settings, Endianness : Big
Codec ID : A_AC3
Duration : 1h 44mn
Bit rate mode : Constant
Bit rate : 192 Kbps
Channel(s) : 2 channels
Channel positions : Front: L R
Sampling rate : 48.0 KHz
Frame rate : 31.250 fps (1536 spf)
Compression mode : Lossy
Stream size : 144 MiB (1%)
Title : Ukr. | MVO | Novy Kanal | 2.0 | 192 kb/s
Language : Ukrainian
Default : Yes
Forced : No

Audio #2
ID : 3
Format : AC-3
Format/Info : Audio Coding 3
Mode extension : CM (complete main)
Format settings, Endianness : Big
Codec ID : A_AC3
Duration : 1h 44mn
Bit rate mode : Constant
Bit rate : 384 Kbps
Channel(s) : 6 channels
Channel positions : Front: L C R, Side: L R, LFE
Sampling rate : 48.0 KHz
Frame rate : 31.250 fps (1536 spf)
Compression mode : Lossy
Stream size : 288 MiB (3%)
Title : Eng. | Original | 5.1 | 384 kb/s
Language : English
Default : No
Forced : No

Text
ID : 4
Format : UTF-8
Codec ID : S_TEXT/UTF8
Codec ID/Info : UTF-8 Plain Text
Title : Eng. | Subtitles
Language : English
Default : No
Forced : No
Скріншоти













Джерело:
За опис та доріжку дякую пану (Доріжка з його релізу) patriot2305
За запис звуку з ТБ дякую пану xslim
Особиста оцінка: 10 - без зайвих вагань рекомендую всім!


Срібний реліз (на рейтинг впливає 50% завантаженого)
 Трекер:    Зареєстрований   

Завантажити / скачати фільм українською



відео для новачків



 Зареєстрований:   2016-12-09 14:19
 Розмір:   10.13 GB 
 Оцінка фільму:   10/10 (Голосів: 3)
   
Інші релізи
   Чого хоче дівчина / What a Girl Wants (2003) patriot2305  1 / 0   1.61 GB   2013-06-27 23:13 
Pegass 
VIP


З нами з: 17.12.09
Востаннє: 19.08.17
Повідомлень: 513

2016-12-09 14:33  
...
EvGaS 
Відео Гуртом - підтримка та поширення
Відео Гуртом - підтримка та поширення


З нами з: 27.02.12
Востаннє: 18.08.17
Повідомлень: 3332

2016-12-09 20:03  
Anonymous написано:

P.S. В мене швидкість завантаження та відвантаження маленька.
Нормальна швидкість віддачі буде в ночі. Прохання вантажити поки що комусь одному, не всім зразу (бажано тому, хто має велику швидкість віддачі).

Про функцію суперсіда не чули?
Увімкніть.

Ваш часовий пояс: GMT + 2 Години

Нова тема   Відповісти