І світова: апокаліпсис / Apocalypse la 1ère Guerre mondiale (2014) 720p Ukr/Fre

Нові коментарі

Нова тема   Відповісти
Сторінка:  1, 2  наступна
Автор Повідомлення
AngryBirdsUA 
Свій


З нами з: 24.02.10
Востаннє: 19.10.17
Повідомлень: 3037

2016-12-09 10:27  
І світова: апокаліпсис / Apocalypse la 1ère Guerre mondiale (2014) 720p Ukr/Fre



Жанр: документальний
Країна: Франція



Телеканал / кіностудія: CC&C, Idéacom International, Établissement de Communication et de Production Audiovisuelle de la Défense (ECPAD)
Режисер: Даніель Костель, Ізабель Кларк
Сюжет:
Більше 500 годин унікальних відновлених документальних матеріалів стали основою цього серіалу. Тут ви побачите самий епіцентр військових дій, від окопів у Франції до фронтів у Росії, Сербії, Туреччині та Палестині.

Які події відіграли ключову роль у ході війни, та яким було повсякденне життя тих, хто на собі відчув усі її жахи? Чому укладений мирний договір заклав фундамент для майбутньої трагедії, та якою була роль Америки у завершенні війни? Усю правду про одну з найжахливіших війн в історії дізнаємось у проекті “І світова: апокаліпсис”.


Перелік серій:
1. Фурія / Furie
2. Страх / Peur
3. Пекло / Enfer
4. Лють / Rage
5. Звільнення / Délivrance

Тривалість: 5 x ~52 хв.
Якість: 720p (Hurtom)
Відео:
кодек:
розмір кадру: 1280 х 720
бітрейт: 7000 кб/с

Аудіо # 1:
мова: українська
переклад: одноголосий закадровий
кодек: 2.0
бітрейт: 192 кб/с

Аудіо # 2:
мова: французька
переклад: оригінал
кодек: 5.1
бітрейт: 448 кб/с
Info
General
Unique ID : 245879176631266725695340847785756156168 (0xB8FA9B5DA32D4C3FBD6B7A1766156108)
Complete name : E:\Apocalypse World War I (2014) 720p [Ukr.Eng] [Hurtom]\E01 - Furie (2014) 720p [Ukr.Fre] [Hurtom].
Format :
Format version : Version 4 / Version 2
File size : 2.85 GiB
Duration : 52 min 2 s
Overall bit rate : 7 835 kb/s
Encoded date : UTC 2016-12-15 20:27:12
Writing application : mkvmerge v7.8.0 ('River Man') 32bit built on Apr 3 2015 12:11:22
Writing library : libebml v1.3.1 + libmatroska v1.4.2

Video
ID : 1
Format : AVC
Format/Info : Advanced Video Codec
Format profile : [email protected]
Format settings, CABAC : Yes
Format settings, ReFrames : 8 frames
Codec ID : V_MPEG4/ISO/AVC
Duration : 52 min 2 s
Bit rate : 7 000 kb/s
Width : 1 280 pixels
Height : 720 pixels
Display aspect ratio : 16:9
Frame rate mode : Constant
Frame rate : 25.000 FPS
Color space : YUV
Chroma subsampling : 4:2:0
Bit depth : 8 bits
Scan type : Progressive
Bits/(Pixel*Frame) : 0.304
Stream size : 2.54 GiB (89%)
Writing library : core 142 r2479 dd79a61
Encoding settings : cabac=1 / ref=8 / deblock=1:-1:-1 / analyse=0x1:0x131 / me=umh / subme=9 / psy=1 / psy_rd=1.00:0.15 / mixed_ref=1 / me_range=16 / chroma_me=1 / trellis=2 / 8x8dct=0 / cqm=0 / deadzone=21,11 / fast_pskip=1 / chroma_qp_offset=-3 / threads=12 / lookahead_threads=1 / sliced_threads=0 / nr=0 / decimate=1 / interlaced=0 / bluray_compat=0 / constrained_intra=0 / bframes=3 / b_pyramid=2 / b_adapt=2 / b_bias=0 / direct=3 / weightb=1 / open_gop=0 / weightp=2 / keyint=250 / keyint_min=25 / scenecut=40 / intra_refresh=0 / rc_lookahead=60 / rc=2pass / mbtree=1 / bitrate=7000 / ratetol=1.0 / qcomp=0.60 / qpmin=0 / qpmax=69 / qpstep=4 / cplxblur=20.0 / qblur=0.5 / vbv_maxrate=50000 / vbv_bufsize=62500 / nal_hrd=none / filler=0 / ip_ratio=1.40 / aq=1:1.00
Default : Yes
Forced : No
Color range : Limited
Color primaries : BT.709
Transfer characteristics : BT.709
Matrix coefficients : BT.709

Audio #1
ID : 2
Format : AC-3
Format/Info : Audio Coding 3
Mode extension : CM (complete main)
Format settings, Endianness : Big
Codec ID : A_AC3
Duration : 52 min 2 s
Bit rate mode : Constant
Bit rate : 192 kb/s
Channel(s) : 2 channels
Channel positions : Front: L R
Sampling rate : 48.0 kHz
Frame rate : 31.250 FPS (1536 spf)
Bit depth : 16 bits
Compression mode : Lossy
Delay relative to video : -80 ms
Stream size : 71.5 MiB (2%)
Language : Ukrainian
Default : Yes
Forced : Yes

Audio #2
ID : 3
Format : AC-3
Format/Info : Audio Coding 3
Mode extension : CM (complete main)
Format settings, Endianness : Big
Codec ID : A_AC3
Duration : 52 min 2 s
Bit rate mode : Constant
Bit rate : 640 kb/s
Channel(s) : 6 channels
Channel positions : Front: L C R, Side: L R, LFE
Sampling rate : 48.0 kHz
Frame rate : 31.250 FPS (1536 spf)
Bit depth : 16 bits
Compression mode : Lossy
Delay relative to video : -80 ms
Stream size : 238 MiB (8%)
Language : French
Default : No
Forced : No


За допомгу подяка пану: scapuletti, та за українізований постер пану zed.
Джерело:


Бронзовий реліз (на рейтинг впливає 75% завантаженого)
 Трекер:    Зареєстрований   

Завантажити / скачати фільм українською



відео для новачків



 Зареєстрований:   2016-12-18 16:33
 Розмір:   14.24 GB 
 Оцінка фільму:   5.8/10 (Голосів: 32)
   
Zag. 
Свій


З нами з: 06.06.14
Востаннє: 16.10.17
Повідомлень: 141

2016-12-09 11:29  
Цікаво буде подивитись.
380966057693 
Свій


З нами з: 15.01.14
Востаннє: 18.10.17
Повідомлень: 105

2016-12-09 12:06  
Коли буде? Такі документальні фільми справді цікаві
Yarik M 
VIP


З нами з: 25.10.12
Востаннє: 19.10.17
Повідомлень: 301

2016-12-09 14:12  
Чудова новина. Фільми з серії апокаліпсис - найкращі документальні фільми, які я коли-небудь бачив про 1-шу та 2-гу світові війни.
krycek 
Новенький


З нами з: 22.08.13
Востаннє: 20.10.17
Повідомлень: 4

2016-12-09 15:09  
Але щось у мене картинка з текстом не сходиться. І форма американця з ІІ Світової і танк і літаки так само. Сподіваюсь помилка в цифрах. Бо якщо це картинка авторів фільм, боюся уявити, що ж там буде. :/
igor911 
Відео Гуртом
Відео Гуртом


З нами з: 18.01.08
Востаннє: 20.10.17
Повідомлень: 7931

2016-12-09 16:25  
krycek, очевидно, просто українізатори переробляли постер від ІІї світової https://toloka.to/t57236

Додано через 21 хвилину 32 секунди:

оригінальний постер:

АндрійСхідний 
Частий відвідувач


З нами з: 05.04.12
Востаннє: 20.10.17
Повідомлень: 28

2016-12-09 16:51  
Ось ще один
Toky 
Свій


З нами з: 06.07.09
Востаннє: 19.10.17
Повідомлень: 106

2016-12-10 02:44  
а на постері американський солдат часів ДСВ Happy
krycek 
Новенький


З нами з: 22.08.13
Востаннє: 20.10.17
Повідомлень: 4

2016-12-10 11:00  
Ну то значить наші трохи опозорилися. Прикро. Sad (1)
SU1984 
Новенький


З нами з: 21.03.15
Востаннє: 17.10.17
Повідомлень: 2

2016-12-10 13:43  
AngryBirdsUA
Класс! Дуже чекаю!

AngryBirdsUA 
Свій


З нами з: 24.02.10
Востаннє: 19.10.17
Повідомлень: 3037

2016-12-10 14:21  
krycek написано:
Ну то значить наші трохи опозорилися. Прикро.
Зробіть тоді краще як розумні такі.
igor911 
Відео Гуртом
Відео Гуртом


З нами з: 18.01.08
Востаннє: 20.10.17
Повідомлень: 7931

2016-12-10 16:15  
AngryBirdsUA, краще прибрати той постер і поставити оригінальний, бо буде ще 10500 постів про лажу в ньому.
Форкуш 
VIP


З нами з: 03.02.10
Востаннє: 20.10.17
Повідомлень: 1880

2016-12-16 13:39  
чекаю
AngryBirdsUA 
Свій


З нами з: 24.02.10
Востаннє: 19.10.17
Повідомлень: 3037

2016-12-16 15:29  
Форкуш
Уже майже все готове, думаю сьогодні викладу.

AngryBirdsUA 
Свій


З нами з: 24.02.10
Востаннє: 19.10.17
Повідомлень: 3037

2016-12-16 21:55  
Всетаки сьогодні не встигну.
bot 
робот


З нами з: 30.09.07
Востаннє: 26.05.05
Повідомлень: 17702

2016-12-18 16:33  
Тему перенесено з Анонси релізів до форуму Документальні фільми в HD


AngryBirdsUA

Х-Хед 
VIP


З нами з: 06.05.12
Востаннє: 11.10.17
Повідомлень: 388

2016-12-18 16:53  
Добрий день. Чи не міг би автор, або хто вже завантажив, переформатувати в AVI і викласти? Дякую.
respect14 
VIP


З нами з: 26.01.11
Востаннє: 19.10.17
Повідомлень: 487

2016-12-18 17:15  
Може хтось зробити звичайний БДріп?
AngryBirdsUA 
Свій


З нами з: 24.02.10
Востаннє: 19.10.17
Повідомлень: 3037

2016-12-18 19:14  
respect14
Х-Хед
завтра післязавтра буде.

ЕНЕЙ.12 
VIP


З нами з: 18.11.13
Востаннє: 19.10.17
Повідомлень: 794

2016-12-19 02:06  
Anonymous
Цитата:
respect14
Х-Хед
завтра післязавтра буде.


Добре, чекаю також, бо такий файл днів 10. а то й довше, довелося б вантажити!))

respect14 
VIP


З нами з: 26.01.11
Востаннє: 19.10.17
Повідомлень: 487

2016-12-19 19:44  
Anonymous написано:
завтра післязавтра буде.

Круто....одразу заберу) і "ІІ світова: апокаліпсис" також зробіть БДріп звичайний)

Gespenst 
VIP


З нами з: 30.09.09
Востаннє: 19.10.17
Повідомлень: 268

2016-12-19 20:33  
майте совість в мене 8 Гб вільних а від Апокаліпсису я окропом бризкаю!
AngryBirdsUA 
Свій


З нами з: 24.02.10
Востаннє: 19.10.17
Повідомлень: 3037

2016-12-20 19:09  
respect14
Х-Хед
https://toloka.to/t78439

respect14 
VIP


З нами з: 26.01.11
Востаннє: 19.10.17
Повідомлень: 487

2016-12-21 02:56  
Anonymous
Велике мерсі)

ЕНЕЙ.12 
VIP


З нами з: 18.11.13
Востаннє: 19.10.17
Повідомлень: 794

2016-12-21 23:50  
respect14
Цитата:
і "ІІ світова: апокаліпсис" також зробіть БДріп звичайний)

Так давно вже є)) https://toloka.to/t58208

bohun 
VIP


З нами з: 21.03.09
Востаннє: 19.10.17
Повідомлень: 309

2017-01-08 23:13  
Цитата:
5.5/10 (Голосів: 20)

Народ ви серйозно? Як можна ставити низькі оцінки такій шикарній документалці/кінохроніці? Хто ставив "6" і нижче - можете аргументувати - чому?

Robar III 
Попереджень: 2
Попереджень: 2 


З нами з: 18.08.11
Востаннє: 18.10.17
Повідомлень: 2529

2017-01-08 23:20  
bohun
першу світову не дивився, дивився цей "апокаліпсис" по 2- світовій. більше 5-ти не дав би.

igor911 
Відео Гуртом
Відео Гуртом


З нами з: 18.01.08
Востаннє: 20.10.17
Повідомлень: 7931

2017-01-09 02:35  
Тут тільки за кольорову кінохроніку вже 10ку треба ставити.
Robar III 
Попереджень: 2
Попереджень: 2 


З нами з: 18.08.11
Востаннє: 18.10.17
Повідомлень: 2529

2017-01-09 11:38  
igor911
а на перекручування фактів, маніпуляції, забити очі? (я зараз про другий фільм, але не думаю, що, цей набагато відрізняється)

bohun 
VIP


З нами з: 21.03.09
Востаннє: 19.10.17
Повідомлень: 309

2017-01-09 15:51  
Цитата:
перекручування фактів, маніпуляції, забити очі

я просив аргументувати, а не просто полити брудом. Які саме факти там перекручені чи неправильно висвітлені?

Додано через 13 хвилин:

І бажано також сказати де саме (яка серія, і час)

Ваш часовий пояс: GMT + 2 Години

Нова тема   Відповісти Сторінка:  1, 2  наступна