Монстри на канікулах 2 / Hotel Transylvania 2 (2015) Remux 1080p Ukr/Eng | Sub Ukr/Eng

Нові коментарі

Нова тема   Відповісти
Автор Повідомлення
staf777 
Відео Гуртом - підтримка та поширення
Відео Гуртом - підтримка та поширення


З нами з: 16.11.16
Востаннє: 16.08.17
Повідомлень: 522

2016-12-09 01:14  
Монстри на канікулах 2 / Hotel Transylvania 2 (2015) Remux 1080p Ukr/Eng | Sub Ukr/Eng

Монстри на канікулах 2 / Hotel Transylvania 2 (2015) Remux 1080p Ukr/Eng | Sub Ukr/Eng

Українські постери




повнорозмірні зображення відкриються по кліку (з натиснутим CTRL чи кліком середньою кнопкою мишки - у новій вкладці)

Жанр: анімація, комедія, фентезі
Країна: США



Кінокомпанія: Columbia Pictures, LStar Capital, Sony Pictures Animation
Режисер: Дженді Тартаковські
Актори: Адам Сендлер, Енді Семберґ, Селена Ґомес, Кевін Джеймс, Стів Бушемі, Девід Спейд, Кіґен-Майкл Кі, Ешер Блінкофф, Френ Дрешер, Моллі Шеннон

Сюжет:
Граф Дракула видає свою чарівну дочку заміж за хлопця зі світу людей, і у молодої «змішаної» пари народжується син. Стане ця дитина людиною чи вампіром?
Чи знаєте ви, що...

• Майка і Лінду, батьків Джонатана, озвучували подружжя – Нік Офферман і Меган Маллаллі.
• Фінальна модель зачіски Денніса складалася з 265 самостійних волосків. Коли комп'ютер домалював інші, кількість зросла до 150 000 волосків.
• Дія фільму відбувається через 7 років після подій першого фільму. Дракулі тепер 539 років, Мевісу — 125, а Джонатану — 28.
• Зйомки фільму почалися у вересні 2013.
• Над фільмом працювало 24 розкадровщика, 23 спеціаліста з візуальних ефектів, 17 художників з оформлення шарів, 105 аніматорів і 87 освітлювачів. Всього було намальовано 194 персонажа і 74 локації.
• Прототипом аеропорту, який з'являється у фільмі, став аеропорт Сан-Хосе в Північній Каліфорнії, найближчий аеропорт до міста Санта-Круз, звідки родом Джонатан.
• Оскільки Дракула відвідував табір Віннепакака, ще будучи дитиною, команді художників та декораторів довелося придумати, як зробити так, щоб місце розташування табору залишалося в таємниці 1000 років. Жодна людина не повинен був знайти його. У підсумку було вирішено помістити табір глибоко в надра стародавньої гори, з якої вампіри з'являлися тільки під покровом ночі. Таке рішення підказало художникам реальне місто Рьюкан в Норвегії, яке збудоване у вузькій долині, куди практично не проникає сонячне світло. У 2013 році на гірському хребті встановили три дзеркала, кожне з яких площею 17 кв. м, для освітлення міста.
• На дошці інформації у Таборі Віннепакака, яку можна мигцем побачити в сцені, коли Френк бігає, охоплений полум'ям, можна знайти чимало забавною інформації:
Список всіх художників з відділу з візуальних ефектів;
Ім'я кота художника-постановника Майкла Курінскі.
• Номер на майках Дениса показує, скільки років персонажу.
• Деякі друзі і родичі Адама Сендлера озвучили епізодичні ролі у фільмі:
9-річна дочка Адама Сендлера Седі Сендлер озвучила роль вовченя Вінні, а його 6-річна дочка Санні Сендлер – роль Дениса в дитинстві;
Зірка програми «Суботнім вечором в прямому ефірі» (1975) Кріс Парнелл озвучив роль Мухи;
Пол Бріттейн озвучив роль Пандрагори:
Сценарист Роберт Шмігель озвучив репліки навігатора, а також монстра-чарівника Трьохокого Гаррі.
• СіЛо Грін, який озвучував Мюррея (мумія) в першому фільмі, не озвучував цього персонажа у другій частині через те, що був заарештований. Замість нього цього персонажа озвучив Кіген-Майкл Кі.
• Мел Брукс, який озвучив Влада (Дракула), раніше займався режисурою фільму «Дракула: Мертвий і задоволений» (1995).
• Група Fifth Harmony записала головну музичну тему фільму під назвою «i'm In Love With a Monster».
• Ім'я персонажа Білого, якого озвучив Роб Ріггл – це відсилання до актора Белі Лугоші.
• Спеціальний показ фільму проходив в Джексонвіллі, штат Флорида, під робочою назвою «Perfect».
Тривалість: 01:29:48
Якість: Remux 1080p
Відео:
кодек:
розмір кадру: 1920x1080
бітрейт: 24.9 Мб/с

Аудіо # 1:
мова: українська
переклад: професійний дубльований
кодек: 2.0
бітрейт: 192 кб/с

Аудіо # 2:
мова: англійська
переклад: оригінал
кодек: -HD MA 5.1
бітрейт: 2198 кб/с

Аудіо # 3:
мова: англійська
переклад: описова
кодек: 5.1
бітрейт: 640 кб/с

Аудіо # 4:
мова: англійська
переклад: коментарі
кодек: 2.0
бітрейт: 192 кб/с

Аудіо # 5:
мова: англійська
переклад: коментарі
кодек: 2.0
бітрейт: 192 кб/с

Субтитри:
мова: українська
тип: пререндерні PGS

Субтитри:
мова: англійська
тип: пререндерні PGS

Субтитри:
мова: англійська (SDH)
тип: пререндерні PGS
Info
General
Unique ID : 239495921810665560892885927310001953260 (0xB42D3C9AD2225C0C9280BB0798EBD9EC)
Complete name : M:\Майбутні релізи\Hotel Transylvania 2 (2015) BDRemuxs 1080p [Ukr Eng] [Sub Ukr Eng][Hurtom] (1).
Format :
Format version : Version 4 / Version 2
File size : 17.7 GiB
Duration : 1h 29mn
Overall bit rate mode : Variable
Overall bit rate : 28.3 Mbps
Movie name : Hotel Transylvania 2 (2015) BDRemuxs 1080p [Ukr Eng] [Sub Ukr Eng][Hurtom]
Encoded date : UTC 2016-12-08 21:30:08
Writing application : mkvmerge v9.5.0 ('Quiet Fire') 64bit
Writing library : libebml v1.3.4 + libmatroska v1.4.5
Attachements : jpg.jpg

Video
ID : 1
Format : AVC
Format/Info : Advanced Video Codec
Format profile : High@L4.1
Format settings, CABAC : Yes
Format settings, ReFrames : 2 frames
Format settings, GOP : M=1, N=10
Codec ID : V_MPEG4/ISO/AVC
Duration : 1h 29mn
Bit rate mode : Variable
Bit rate : 24.9 Mbps
Width : 1 920 pixels
Height : 1 080 pixels
Display aspect ratio : 16:9
Frame rate mode : Constant
Frame rate : 23.976 (24000/1001) fps
Color space : YUV
Chroma subsampling : 4:2:0
Bit depth : 8 bits
Scan type : Progressive
Bits/(Pixel*Frame) : 0.501
Stream size : 15.5 GiB (88%)
Title : Hotel Transylvania 2 (2015) BDRemuxs 1080p [Ukr Eng] [Sub Ukr Eng][Hurtom]
Default : Yes
Forced : No

Audio #1
ID : 2
Format : AC-3
Format/Info : Audio Coding 3
Mode extension : CM (complete main)
Format settings, Endianness : Big
Codec ID : A_AC3
Duration : 1h 29mn
Bit rate mode : Constant
Bit rate : 192 Kbps
Channel(s) : 2 channels
Channel positions : Front: L R
Sampling rate : 48.0 KHz
Frame rate : 31.250 fps (1536 spf)
Compression mode : Lossy
Stream size : 123 MiB (1%)
Title : , 2/0 (L,R) ch, 192.00 kbps [UA-DUB- iTunes]
Language : Ukrainian
Default : Yes
Forced : Yes

Audio #2
ID : 3
Format :
Format/Info : Digital Theater Systems
Format profile : MA / Core
Mode : 16
Format settings, Endianness : Big
Codec ID : A_DTS
Duration : 1h 29mn
Bit rate mode : Variable / Constant
Bit rate : 2 198 Kbps / 1 509 Kbps
Channel(s) : 6 channels
Channel positions : Front: L C R, Side: L R, LFE
Sampling rate : 48.0 KHz
Frame rate : 93.750 fps (512 spf)
Bit depth : 16 bits
Compression mode : Lossless / Lossy
Stream size : 1.37 GiB (8%)
Title : -HD MA 5.1, ~2198 kbps [Original]
Language : English
Default : No
Forced : No

Audio #3
ID : 4
Format : AC-3
Format/Info : Audio Coding 3
Mode extension : CM (complete main)
Format settings, Endianness : Big
Codec ID : A_AC3
Duration : 1h 29mn
Bit rate mode : Constant
Bit rate : 640 Kbps
Channel(s) : 6 channels
Channel positions : Front: L C R, Side: L R, LFE
Sampling rate : 48.0 KHz
Frame rate : 31.250 fps (1536 spf)
Compression mode : Lossy
Stream size : 409 MiB (2%)
Title : , 3/2 640 kbps |Descriptive|
Language : English
Default : No
Forced : No

Audio #4
ID : 5
Format : AC-3
Format/Info : Audio Coding 3
Mode extension : CM (complete main)
Format settings, Endianness : Big
Codec ID : A_AC3
Duration : 1h 29mn
Bit rate mode : Constant
Bit rate : 192 Kbps
Channel(s) : 2 channels
Channel positions : Front: L R
Sampling rate : 48.0 KHz
Frame rate : 31.250 fps (1536 spf)
Compression mode : Lossy
Stream size : 123 MiB (1%)
Title : , 2/0 192 kbps |Commentary with Adam Sandler, Robert Smigel and Allen Covert|
Language : English
Default : No
Forced : No

Audio #5
ID : 6
Format : AC-3
Format/Info : Audio Coding 3
Mode extension : CM (complete main)
Format settings, Endianness : Big
Codec ID : A_AC3
Duration : 1h 29mn
Bit rate mode : Constant
Bit rate : 192 Kbps
Channel(s) : 2 channels
Channel positions : Front: L R
Sampling rate : 48.0 KHz
Frame rate : 31.250 fps (1536 spf)
Compression mode : Lossy
Stream size : 123 MiB (1%)
Title : , 2/0 192 kbps |Commentary with Director Genndy Tartakovsky|
Language : English
Default : No
Forced : No

Text #1
ID : 7
Format : PGS
Muxing mode : zlib
Codec ID : S_HDMV/PGS
Codec ID/Info : Picture based subtitle format used on BDs/HD-DVDs
Duration : 1h 18mn
Bit rate : 12.8 Kbps
Count of elements : 2150
Stream size : 7.18 MiB (0%)
Title : [SUB-UA](iTunes)
Language : Ukrainian
Default : Yes
Forced : No

Text #2
ID : 8
Format : PGS
Muxing mode : zlib
Codec ID : S_HDMV/PGS
Codec ID/Info : Picture based subtitle format used on BDs/HD-DVDs
Duration : 1h 19mn
Bit rate : 15.1 Kbps
Count of elements : 2621
Stream size : 8.57 MiB (0%)
Title : [SUB-ENG]
Default : No
Forced : No

Text #3
ID : 9
Format : PGS
Muxing mode : zlib
Codec ID : S_HDMV/PGS
Codec ID/Info : Picture based subtitle format used on BDs/HD-DVDs
Duration : 1h 21mn
Bit rate : 19.5 Kbps
Count of elements : 2904
Stream size : 11.3 MiB (0%)
Title : [SUB-ENG]
Default : No
Forced : No
Скріншоти


Джерело: &
Особиста оцінка: 10 - без зайвих вагань рекомендую всім!

Дякую пану підпільнику за українську обкладинку


Золотий реліз (завантажене не впливає на рейтинг)
 Трекер:    Зареєстрований   

Завантажити / скачати мультфільм українською



відео для новачків



 Зареєстрований:   2016-12-09 10:51
 Розмір:   17.68 GB 
 Оцінка мультфільму:   7.8/10 (Голосів: 6)
   
Ваш часовий пояс: GMT + 2 Години

Нова тема   Відповісти