Секрети домашніх тварин / The Secret Life of Pets (2016) Remux 1080p Ukr/Eng | Sub Ukr/Eng

Нові коментарі

Нова тема   Відповісти
Автор Повідомлення
Anonymous 







2016-12-09 00:57  
Секрети домашніх тварин / The Secret Life of Pets (2016) Remux 1080p Ukr/Eng | Sub Ukr/Eng



Жанр: анімація, комедія, пригодницький, сімейний
Країна: США, Японія



Кінокомпанія: Universal Pictures, Illumination Entertainment
Режисер: Кріс Рено / Chris Renaud, Ярроу Чейні / Yarrow Cheney
Актори: Луї Сі Кей / Louis C.K., Ерік Стоунстріт / Eric Stonestreet, Кевін Гарт / Kevin Hart, Дженні Слейт / Jenny Slate, Еллі Кемпер / Ellie Kemper, Альберт Брукс / Albert Brooks, Лейк Белл / Lake Bell, Ганнібал Баресс / Hannibal Buress, Кріс Рено / Chris Renaud, Стів Куґан / Steve Coogan та інші

Сюжет:
Улюбленець своєї власниці пес Макс жив щасливо у квартирі на Мангеттені. Він грав і спілкувався з сусідськими звірятами. Але все життя Макса перекинулося догори дригом, коли його хазяйка вирішила взяти ще одного пса - Дюка. Парочка ніяк не могла помиритися, проте їм довелося залишити свої сварки позаду через важливіші причини. Кролик на ім'я Сніжок збирає армію загублених домашніх тварин, щоб помститися своїм двоногим кривдникам.

Інші українські трейлери









Рейтинг MPAA: PG - рекомендується присутність батьків
Вікова категорія: 6+

Тривалість: 01:26:27
Якість: Remux (з Blu-ray BALTiC)
Відео:
кодек:
розмір кадру: 1920 х 1080
бітрейт: 24152 Кбіт/с

Аудіо # 1:
мова: українська
переклад: професійний дубльований | студія LeDoyen
кодек: 5.1
бітрейт: 640 Кбіт/с
Інформація про дубляж
Фільм дубльовано студією LeDoyen на замовлення B&H Film Distribution
Переклад: Сергій Ковальчук
Режисер дубляжу: Ганна Пащенко
Звукорежисер: Микита Будаш
Звукорежисер перезапису: Олег Кульчицький
Координатор проекту: Аліна Гаєвська
Ролі дублювали: Сергій Притула, Андрій Федінчик, Сергій Солопай, Олеся Жураковська, Павло Шилько (dj Паша), Марина Андрощук, Валерій Легін, Євген Малуха, Назар Задніпровський та інші
Мікс дубляжної версії здійснено на студії LeDoyen
Аудіо # 2:
мова: англійська
переклад: оригінал
кодек: Dolby TrueHD/Atmos 7.1
бітрейт: 4764 Кбіт/с

Аудіо # 3:
мова: англійська
переклад: оригінал
кодек: 5.1
бітрейт: 640 Кбіт/с

Субтитри # 1 - 2:
мова: українська (форсовані, повні)
тип: пререндерні
формат: pgs

Субтитри # 3:
мова: англійська (SDH)
тип: пререндерні
формат: pgs

Збережено оригінальні розділи, як на Blu-ray
Info
Код:
Format                      :
Format version              : Version 4 / Version 2
File size                   : 18.1 GiB
Duration                    : 1 h 26 min
Overall bit rate mode       : Variable
Overall bit rate            : 30.0 Mb/s

Video
ID                          : 1
Format                      : AVC
Format/Info                 : Advanced Video Codec
Format profile              : [email protected]
Format settings, CABAC      : Yes
Format settings, ReFrames   : 4 frames
Codec ID                    : V_MPEG4/ISO/AVC
Duration                    : 1 h 26 min
Bit rate mode               : Variable
Bit rate                    : 23.8 Mb/s
Maximum bit rate            : 28.0 Mb/s
Width                       : 1 920 pixels
Height                      : 1 080 pixels
Display aspect ratio        : 16:9
Frame rate mode             : Constant
Frame rate                  : 23.976 (24000/1001) FPS
Color space                 : YUV
Chroma subsampling          : 4:2:0
Bit depth                   : 8 bits
Scan type                   : Progressive
Bits/(Pixel*Frame)          : 0.479
Stream size                 : 14.4 GiB (80%)
Title                       : Секрети домашніх тварин / The Secret Life of Pets (2016) Blu-ray BALTIC 1080p [HDClub]
Language                    : English
Default                     : Yes
Forced                      : No

Audio #1
ID                          : 2
Format                      : AC-3
Format/Info                 : Audio Coding 3
Mode extension              : CM (complete main)
Format settings, Endianness : Big
Codec ID                    : A_AC3
Duration                    : 1 h 26 min
Bit rate mode               : Constant
Bit rate                    : 640 kb/s
Channel(s)                  : 6 channels
Channel positions           : Front: L C R, Side: L R, LFE
Sampling rate               : 48.0 kHz
Frame rate                  : 31.250 FPS (1536 spf)
Bit depth                   : 16 bits
Compression mode            : Lossy
Stream size                 : 396 MiB (2%)
Title                       : Dub [LeDoyen, Blu-ray BALTIC] 5.1 640 Kbps
Language                    : Ukrainian
Default                     : Yes
Forced                      : Yes

Audio #2
ID                          : 3
Format                      : Atmos / TrueHD
Codec ID                    : A_TRUEHD
Duration                    : 1 h 26 min
Bit rate mode               : Variable
Bit rate                    : 4 764 kb/s
Maximum bit rate            : 7 371 kb/s
Channel(s)                  : Object Based / 8 channels
Channel positions           : Object Based / Front: L C R, Side: L R, Back: L R, LFE
Sampling rate               :  / 48.0 kHz
Frame rate                  : 1 200.000 FPS (40 spf)
Compression mode            : Lossless
Stream size                 : 2.88 GiB (16%)
Title                       : Original, TrueHD Atmos 7.1 4764 kbps
Language                    : English
Default                     : No
Forced                      : No

Audio #3
ID                          : 4
Format                      : AC-3
Format/Info                 : Audio Coding 3
Mode extension              : CM (complete main)
Format settings, Endianness : Big
Codec ID                    : A_AC3
Duration                    : 1 h 26 min
Bit rate mode               : Constant
Bit rate                    : 640 kb/s
Channel(s)                  : 6 channels
Channel positions           : Front: L C R, Side: L R, LFE
Sampling rate               : 48.0 kHz
Frame rate                  : 31.250 FPS (1536 spf)
Bit depth                   : 16 bits
Compression mode            : Lossy
Stream size                 : 396 MiB (2%)
Title                       : Original, 5.1 640 kbps
Language                    : English
Default                     : No
Forced                      : No

Text #1
ID                          : 5
Format                      : PGS
Muxing mode                 : zlib
Codec ID                    : S_HDMV/PGS
Codec ID/Info               : Picture based subtitle format used on BDs/HD-DVDs
Duration                    : 1 h 24 min
Bit rate                    : 217 b/s
Count of elements           : 52
Stream size                 : 135 KiB (0%)
Title                       : Ukr FORCED
Language                    : Ukrainian
Default                     : Yes
Forced                      : Yes

Text #2
ID                          : 6
Format                      : PGS
Muxing mode                 : zlib
Codec ID                    : S_HDMV/PGS
Codec ID/Info               : Picture based subtitle format used on BDs/HD-DVDs
Duration                    : 1 h 24 min
Bit rate                    : 10.2 kb/s
Count of elements           : 2542
Stream size                 : 6.18 MiB (0%)
Title                       : Ukr FULL
Language                    : Ukrainian
Default                     : No
Forced                      : No

Text #3
ID                          : 7
Format                      : PGS
Muxing mode                 : zlib
Codec ID                    : S_HDMV/PGS
Codec ID/Info               : Picture based subtitle format used on BDs/HD-DVDs
Duration                    : 1 h 26 min
Bit rate                    : 14.6 kb/s
Count of elements           : 3390
Stream size                 : 8.99 MiB (0%)
Title                       : Eng SDH
Language                    : English
Default                     : No
Forced                      : No

Menu
00:00:00.000                : en:00:00:00.000
00:05:05.847                : en:00:05:05.847
00:09:24.063                : en:00:09:24.063
00:13:18.840                : en:00:13:18.840
00:18:03.666                : en:00:18:03.666
00:22:14.458                : en:00:22:14.458
00:28:51.855                : en:00:28:51.855
00:32:54.848                : en:00:32:54.848
00:36:55.839                : en:00:36:55.839
00:42:27.295                : en:00:42:27.295
00:44:46.767                : en:00:44:46.767
00:50:21.227                : en:00:50:21.227
00:54:45.407                : en:00:54:45.407
00:59:33.987                : en:00:59:33.987
01:02:36.544                : en:01:02:36.544
01:07:12.362                : en:01:07:12.362
01:13:06.841                : en:01:13:06.841
01:16:04.602                : en:01:16:04.602
01:18:48.057                : en:01:18:48.057
01:19:58.836                : en:01:19:58.836


Джерело:


Золотий реліз (завантажене не впливає на рейтинг)
 Трекер:    Зареєстрований   

Завантажити / скачати мультфільм українською



відео для новачків



 Зареєстрований:   2016-12-09 11:07
 Розмір:   18.09 GB 
 Оцінка мультфільму:   5.5/10 (Голосів: 20)
   
IRONHIDE 
Свій


З нами з: 06.08.10
Востаннє: 22.08.17
Повідомлень: 145

2016-12-09 12:46  
Дякую за реліз!
Ваш часовий пояс: GMT + 2 Години

Нова тема   Відповісти