Гаваї / Hawaii (1966) 720p Ukr/Eng

Нові коментарі

Нова тема   Відповісти
Автор Повідомлення
Anonymous 







2016-12-09 00:02  
Гаваї / Hawaii (1966) 720p Ukr/Eng



Жанр: драма
Країна: США



Кінокомпанія: The Mirisch Corporation
Режисер: The Mirisch Corporation
Актори: Джулі Ендрюс, Макс фон Зюдоф, Річард Харріс, Джин Хекмен, Керрол О'Коннор, Жослін Лагард, Ману Тупо, Тед Нобріга, Елізабет Лог, Джон Каллам, Джордж Роуз, Лу Антоніо, Торін Тетчер, Майкл Костянтин, Малкольм Аттербері , Елізабет Коул, Дайан Шеррі, Хезер Мензес, Бетт Мідлер

Сюжет:
В 1820-х роках Ебнер Хейл, цілеспрямований і позбавлений почуття гумору місіонер, одружується на прекрасній Джеруше Бромлі і відвозить її на екзотичні Гаваї, де йому належить працювати. Однак розрив між двома культурами занадто великий, і замість розуміння приходить трагедія ...


Тривалість: 02:41:12
Якість:
Відео:
кодек:
розмір кадру: 1280x544
бітрейт: 7 350 кб/с

Аудіо # 1:
мова: українська
переклад: багатоголосий закадровий
кодек: 2.0
бітрейт: 192 кб/с

Аудіо # 2:
мова: англійська
переклад: оригінал
кодек: 2.0
бітрейт: 768 кб/с
Info
General
Unique ID : 183424843774863920298955671007409805006 (0x89FE5704CDDF57B99E81E2889F3516CE)
Complete name : H:\ex.ua\Hawaii (1966) [Ukr,Eng] 720p [Hurtom].
Format :
Format version : Version 2
File size : 9.36 GiB
Duration : 2 h 41 min
Overall bit rate : 8 308 kb/s
Movie name : Hawaii (1966)
Encoded date : UTC 2016-09-03 10:21:49
Writing application : mkvmerge v5.4.0 ('Piper') built on Mar 10 2012 13:34:39
Writing library : libebml v1.2.3 + libmatroska v1.3.0

Video
ID : 1
Format : AVC
Format/Info : Advanced Video Codec
Format profile : [email protected]
Format settings, CABAC : Yes
Format settings, ReFrames : 12 frames
Muxing mode : Header stripping
Codec ID : V_MPEG4/ISO/AVC
Duration : 2 h 41 min
Bit rate : 7 350 kb/s
Width : 1 280 pixels
Height : 544 pixels
Display aspect ratio : 2.35:1
Frame rate mode : Constant
Frame rate : 23.976 (24000/1001) FPS
Color space : YUV
Chroma subsampling : 4:2:0
Bit depth : 8 bits
Scan type : Progressive
Bits/(Pixel*Frame) : 0.440
Stream size : 8.09 GiB (86%)
Writing library : core 148 r2665 a01e339
Encoding settings : cabac=1 / ref=12 / deblock=1:-3:-2 / analyse=0x3:0x133 / me=umh / subme=10 / psy=1 / psy_rd=1.10:0.10 / mixed_ref=1 / me_range=32 / chroma_me=1 / trellis=2 / 8x8dct=1 / cqm=0 / deadzone=21,11 / fast_pskip=0 / chroma_qp_offset=-2 / threads=6 / lookahead_threads=1 / sliced_threads=0 / nr=0 / decimate=1 / interlaced=0 / bluray_compat=0 / constrained_intra=0 / bframes=12 / b_pyramid=2 / b_adapt=2 / b_bias=0 / direct=3 / weightb=1 / open_gop=0 / weightp=2 / keyint=240 / keyint_min=23 / scenecut=40 / intra_refresh=0 / rc_lookahead=70 / rc=2pass / mbtree=0 / bitrate=7350 / ratetol=1.0 / qcomp=0.60 / qpmin=4 / qpmax=64 / qpstep=4 / cplxblur=20.0 / qblur=0.5 / vbv_maxrate=50000 / vbv_bufsize=62500 / nal_hrd=none / filler=0 / ip_ratio=1.30 / pb_ratio=1.25 / aq=1:0.80
Language : English
Default : Yes
Forced : No

Audio #1
ID : 2
Format : AC-3
Format/Info : Audio Coding 3
Mode extension : CM (complete main)
Format settings, Endianness : Big
Muxing mode : Header stripping
Codec ID : A_AC3
Duration : 2 h 41 min
Bit rate mode : Constant
Bit rate : 192 kb/s
Channel(s) : 2 channels
Channel positions : Front: L R
Sampling rate : 48.0 kHz
Frame rate : 31.250 FPS (1536 spf)
Compression mode : Lossy
Stream size : 221 MiB (2%)
Default : Yes
Forced : No

Audio #2
ID : 3
Format :
Format/Info : Digital Theater Systems
Mode : 16
Format settings, Endianness : Big
Muxing mode : Header stripping
Codec ID : A_DTS
Duration : 2 h 41 min
Bit rate mode : Constant
Bit rate : 768 kb/s
Channel(s) : 1 channel
Channel positions : Front: C
Sampling rate : 48.0 kHz
Frame rate : 93.750 FPS (512 spf)
Bit depth : 24 bits
Compression mode : Lossy
Stream size : 886 MiB (9%)
Title : 1.0ch 24-bit 768kbps - original
Language : English
Default : No
Forced : No
Скріншоти


Особиста оцінка: 0 - не дивився

Вийнято з EX.UA

Подяка Arsenfpu


Срібний реліз (на рейтинг впливає 50% завантаженого)
 Трекер:    Зареєстрований   

Завантажити / скачати фільм українською



відео для новачків



 Зареєстрований:   2016-12-09 00:02
 Розмір:   9.36 GB 
 Оцінка фільму:   10/10 (Голосів: 1)
   
Інші релізи
   Гаваї / Hawaii (1966) Ukr/Eng Arsenfpu  2 / 0   2.71 GB   2016-09-03 13:19 
Konfucius 
Управління
Управління


З нами з: 30.09.07
Востаннє: 22.08.17
Повідомлень: 4944

2016-12-09 20:46  
Створювати релізи потрібно через майстер оформлення релізів.

Потрібно добавити скріншоти, Info і кнопку imdb.

lex написано:
Гаваї / Hawaii (1966) 720p [Uk,en]

Гаваї / Hawaii (1966) 720p Ukr/Eng

Ваш часовий пояс: GMT + 2 Години

Нова тема   Відповісти