Лисенятко Вук / Vuk - The Little Fox / Vuk (1981) AVC

Нові коментарі

Нова тема   Відповісти
Автор Повідомлення
Omikron 
VIP


З нами з: 03.01.12
Востаннє: 09.08.17
Повідомлень: 313

2016-12-07 13:08  
Лисенятко Вук / Vuk - The Little Fox / Vuk (1981) AVC



Жанр: пригодницький
Країна: Угорщина



Кіностудія: Pannónia Filmstúdió
Режисер: Аттіла Даргаі
Актори: Тібор Бітскей, Юдіт Погані, Йожеф Д'ябронка, Ласло Чакані, Д'юла Сабо, Тері Фьольді, Ержебет Кутвьольді, Шандор Сабо

Сюжет:
Лисенятко Вук щасливо живе з братами і сестрами у батьківській норі. Спритний і допитливий, одного дня малюк губиться у лісі, а повернувшись додому, бачить, що усі його рідні зникли. Пізніше він дізнається, що у цьому винен мисливець, якого лиси звуть "голошкірим". На щастя для Вука, про нього починає піклуватися старенький дядечко Карак. Із часом, завдяки природним здібностям і мудрим порадам дядька, Вук стає найхитрішим серед мешканців лісу і вирішує помститись мисливцеві.


Перекладено та озвучено студією Омікрон за підтримки HURTOM.COM
Дякуємо користувачу, що фінансово допоміг проекту: Sehrg-Gut


Тривалість: 01:13:16
Якість: AVC
Відео:
кодек:
розмір кадру: 704x576
бітрейт: 3623 кб/с

Аудіо # 1:
мова: українська | студія Омікрон
переклад: багатоголосий закадровий
кодек: 5.1
бітрейт: 384 кб/с

Аудіо # 2:
мова: угорська
переклад: оригінал
кодек: 5.1
бітрейт: 384 кб/с

Скріншоти










Звіт Info

Format :
Format version : Version 2
File size : 2.29 GiB
Duration : 1 h 13 min
Overall bit rate : 4 480 kb/s
Encoded date : UTC 2016-11-25 20:23:36
Writing application : mkvmerge v2.9.0 ('Moanin'') built on May 22 2009 17:46:31
Writing library : libebml v0.7.7 + libmatroska v0.8.1

Video
ID : 1
Format : AVC
Format/Info : Advanced Video Codec
Format profile : [email protected]
Format settings, CABAC : Yes
Format settings, ReFrames : 16 frames
Codec ID : V_MPEG4/ISO/AVC
Duration : 1 h 13 min
Bit rate : 3 623 kb/s
Width : 704 pixels
Height : 576 pixels
Display aspect ratio : 4:3
Frame rate mode : Constant
Frame rate : 25.000 FPS
Standard : PAL
Color space : YUV
Chroma subsampling : 4:2:0
Bit depth : 8 bits
Scan type : Progressive
Bits/(Pixel*Frame) : 0.357
Stream size : 1.85 GiB (81%)
Writing library : core 142 r2431kMod ac76440
Encoding settings : cabac=1 / ref=16 / deblock=1:-2:-1 / analyse=0x3:0x133 / me=umh / subme=11 / psy=1 / fade_compensate=0.00 / psy_rd=1.00:0.00 / mixed_ref=1 / me_range=48 / chroma_me=1 / trellis=2 / 8x8dct=1 / cqm=0 / deadzone=21,11 / fast_pskip=0 / chroma_qp_offset=-2 / threads=12 / lookahead_threads=3 / sliced_threads=0 / nr=0 / decimate=1 / interlaced=0 / bluray_compat=0 / constrained_intra=0 / fgo=0 / bframes=14 / b_pyramid=2 / b_adapt=2 / b_bias=0 / direct=3 / weightb=1 / open_gop=0 / weightp=2 / keyint=250 / keyint_min=25 / scenecut=40 / intra_refresh=0 / rc=crf / mbtree=0 / crf=19.5200 / qcomp=0.60 / qpmin=0 / qpmax=69 / qpstep=4 / ip_ratio=1.40 / pb_ratio=1.30 / aq=3:0.90
Language : Hungarian
Default : Yes
Forced : No
Color range : Limited
Color primaries : BT.601 PAL
Transfer characteristics : BT.470 System B, BT.470 System G
Matrix coefficients : BT.601

Audio #1
ID : 2
Format : AC-3
Format/Info : Audio Coding 3
Mode extension : CM (complete main)
Format settings, Endianness : Big
Codec ID : A_AC3
Duration : 1 h 13 min
Bit rate mode : Constant
Bit rate : 384 kb/s
Channel(s) : 6 channels
Channel positions : Front: L C R, Side: L R, LFE
Sampling rate : 48.0 kHz
Frame rate : 31.250 FPS (1536 spf)
Compression mode : Lossy
Stream size : 201 MiB (9%)
Title : MVO Omikron studio for hurtom.com
Language : Ukrainian
Default : Yes
Forced : No

Audio #2
ID : 3
Format : AC-3
Format/Info : Audio Coding 3
Mode extension : CM (complete main)
Format settings, Endianness : Big
Codec ID : A_AC3
Duration : 1 h 13 min
Bit rate mode : Constant
Bit rate : 384 kb/s
Channel(s) : 6 channels
Channel positions : Front: L C R, Side: L R, LFE
Sampling rate : 48.0 kHz
Frame rate : 31.250 FPS (1536 spf)
Compression mode : Lossy
Stream size : 201 MiB (9%)
Language : Hungarian
Default : No
Forced : No

Menu
00:00:00.000 : :00:00:00
00:05:04.200 : :00:05:04
00:14:44.000 : :00:14:44
00:23:04.240 : :00:23:04
00:32:58.080 : :00:32:58
00:36:56.240 : :00:36:56
00:48:25.760 : :00:48:25
00:52:06.240 : :00:52:06
00:58:56.520 : :00:58:56
01:10:57.240 : :01:10:57



Авторський реліз (завантажувати можна без реєстрації)
 Трекер:    Зареєстрований   

Завантажити / скачати мультфільм українською



відео для новачків



 Зареєстрований:   2016-12-07 13:08
 Розмір:   2.29 GB 
 Оцінка мультфільму:   9.8/10 (Голосів: 17)
   
makapoh 
Новенький


З нами з: 23.12.11
Востаннє: 17.08.17
Повідомлень: 22

2016-12-07 20:23  
Щира подяка Sehrg-Gut! Чудовий мульт!
bogdanich 
VIP


З нами з: 24.10.13
Востаннє: 18.08.17
Повідомлень: 488

2016-12-07 21:48  
Зацікавив, але в описі занадто багато відкривається.
Arsenfpu 
Відео Гуртом - фільмокрай
Відео Гуртом - фільмокрай


З нами з: 30.04.09
Востаннє: 18.08.17
Повідомлень: 2337

2016-12-07 22:52  
Дякую, шикарний мульт!
igor7476olga 
Новенький


З нами з: 08.01.15
Востаннє: 04.08.17
Повідомлень: 4

2016-12-08 12:01  
Викладіть, будь ласка, для ДВД, аві формат.
Tanat13 
Відео Гуртом - запис з ТБ
Відео Гуртом - запис з ТБ


З нами з: 21.03.08
Востаннє: 17.08.17
Повідомлень: 786

2016-12-08 16:43  
Ура! Дякую!
P.S. А "Бегемот Гуго" планується? Wink (2)

Sehrg-Gut 
Оцифрування книг Гуртом
Оцифрування книг Гуртом


З нами з: 12.10.12
Востаннє: 18.08.17
Повідомлень: 819

2016-12-08 20:18  
Tanat13 написано:
А "Бегемот Гуго" планується?

Навіщо? "Бигимоти не медмеді".(с) Wink (1)
Якщо колись буде наступний тур, поставити б на голосування і Б.Г.moth-а, і Русалоньку...

Ваш часовий пояс: GMT + 2 Години

Нова тема   Відповісти