Саллі / Sully (2016) Remux 1080p Ukr/Eng | Sub Eng

Нові коментарі

Нова тема   Відповісти
Автор Повідомлення
staf777 
Відео Гуртом - підтримка та поширення
Відео Гуртом - підтримка та поширення


З нами з: 16.11.16
Востаннє: 24.07.19
Повідомлень: 2684

2016-12-06 23:01  
Саллі / Sully (2016) Remux 1080p Ukr/Eng | Sub Eng

Саллі / Sully (2016) Remux 1080p Ukr/Eng | Sub Eng

«Правдива історія про чудесне спасіння»
Оригінальна обкладинка
Жанр: драма, біографічний
Країна: США



Кінокомпанія: Warner Bros. Pictures, Village Roadshow Pictures, Flashlight Films, Kennedy/Marshall Company, Malpaso Productions
Режисер: Клінт Іствуд
Актори: Том Генкс, Аарон Екхарт, Анна Ґанн, Лора Лінні, Отем Різер, Джеррі Феррара, Кріс Бауер, Моллі Геґен, Вілбур Фіцджералд

Сюжет:
Біографічна драма від п'ятикратного лауреата Оскара і культового режисера і актора Клінта Іствуда. У січні 2009 року пілот Чеслі Салленбергер і перший офіцер Джеффрі Скайлз врятували життя 155 пасажирів і членів екіпажу, посадивши несправний літак на річку Гудзон. І хоча для громадськості капітан Саллі став героєм, який вчинив безпрецедентний подвиг пілотної майстерності, всі його вчинки стали об'єктом ретельного розслідування. Нові докази можуть привести не тільки до знищення репутації Чеслі, але і до руйнування його кар'єри пілота.


Тривалість: 01:35:51
Якість: Remux 1080p
Відео:
кодек:
розмір кадру: 1920 х 1080
бітрейт: 23.7 Mб/с

Аудіо # 1:
мова: українська
переклад: професійний дубльований
кодек: 2.0
бітрейт: 192 кб/с

Аудіо # 2:
мова: англійська
переклад: оригінал
кодек: Dolby Atmos TrueHD 7.1
бітрейт: 6798 кб/с

Субтитри:
мова: українська
тип: пререндерні (форсовані)
формат: PGS

Субтитри:
мова: англійська
тип: пререндерні (SDH)
формат: PGS
Info

General
Unique ID : 183494897209124114628019488701726855916 (0x8A0BD4EB7406222B809AC80C602012EC)
Complete name : K:\Фільми в HD\Драма\Sully (2016) Remux 1080p.
Format :
Format version : Version 4 / Version 2
File size : 20.6 GiB
Duration : 1h 35mn
Overall bit rate mode : Variable
Overall bit rate : 30.8 Mbps
Movie name : Sully (2016) Remux 1080p
Encoded date : UTC 2016-12-07 12:35:55
Writing application : v9.5.0 ('Quiet Fire') 64bit
Writing library : libebml v1.3.4 + v1.4.5
Attachements : cover.jpg.jpg

Video
ID : 1
Format : AVC
Format/Info : Advanced Video Codec
Format profile : [email protected]
Format settings, CABAC : Yes
Format settings, ReFrames : 4 frames
Codec ID : V_MPEG4/ISO/AVC
Duration : 1h 35mn
Bit rate mode : Variable
Bit rate : 23.7 Mbps
Maximum bit rate : 30.0 Mbps
Width : 1 920 pixels
Height : 1 080 pixels
Display aspect ratio : 16:9
Frame rate mode : Constant
Frame rate : 23.976 (24000/1001) fps
Color space : YUV
Chroma subsampling : 4:2:0
Bit depth : 8 bits
Scan type : Progressive
Bits/(Pixel*Frame) : 0.477
Stream size : 15.9 GiB (77%)
Title : Sully (2016) Remux 1080p
Default : Yes
Forced : No

Audio #1
ID : 2
Format : AC-3
Format/Info : Audio Coding 3
Mode extension : CM (complete main)
Format settings, Endianness : Big
Codec ID : A_AC3
Duration : 1h 35mn
Bit rate mode : Constant
Bit rate : 192 Kbps
Channel(s) : 2 channels
Channel positions : Front: L R
Sampling rate : 48.0 KHz
Frame rate : 31.250 fps (1536 spf)
Compression mode : Lossy
Stream size : 132 MiB (1%)
Title : [UA-DUB-iTunes]
Language : Ukrainian
Default : Yes
Forced : Yes

Audio #2
ID : 3
Format : Atmos / TrueHD
Codec ID : A_TRUEHD
Duration : 1h 35mn
Bit rate mode : Variable
Bit rate : 6 798 Kbps
Maximum bit rate : 12.0 Mbps
Channel(s) : Object Based / 8 channels
Channel positions : Object Based / Front: L C R, Side: L R, Back: L R, LFE
Sampling rate : / 48.0 KHz
Frame rate : 1 200.000 fps (40 spf)
Compression mode : Lossless
Stream size : 4.55 GiB (22%)
Title : Dolby Atmos TrueHD 7.1, ~6798 kbps
Language : English
Default : No
Forced : No

Text #1
ID : 4
Format : PGS
Muxing mode : zlib
Codec ID : S_HDMV/PGS
Codec ID/Info : Picture based subtitle format used on BDs/HD-DVDs
Duration : 1h 28mn
Bit rate : 715 bps
Count of elements : 70
Stream size : 462 KiB (0%)
Title : [SUB-UA]
Default : Yes
Forced : No

Text #2
ID : 5
Format : PGS
Muxing mode : zlib
Codec ID : S_HDMV/PGS
Codec ID/Info : Picture based subtitle format used on BDs/HD-DVDs
Duration : 1h 35mn
Bit rate : 15.3 Kbps
Count of elements : 3284
Stream size : 10.5 MiB (0%)
Title : [SUB-ENG] (SDH)
Default : No
Forced : No
Скріншоти



Джерело: &
За доріжку подяка пану Covenant


Золотий реліз (завантажене не впливає на рейтинг)
 Трекер:    Зареєстрований   

Завантажити / скачати фільм українською



відео для новачків



 Зареєстрований:   2016-12-07 19:03
 Розмір:   20.61 GB 
 Оцінка фільму:   9.5/10 (Голосів: 24)
   
Інші релізи
   Саллі / Sully (2016) UHD Remux 4K 2160p HDR H.265 Ukr/Eng | Sub Eng vitoldio  2 / 0   40.94 GB   2019-01-17 23:44 
   Саллі / Sully (2016) 1080p Ukr/Eng | Sub Eng leicheman  12 / 0   5.45 GB   2018-04-12 13:22 
   Саллі / Sully (2016) AVC Ukr/Eng | Sub Eng BASTERD-94  4 / 0   1.46 GB   2016-12-12 21:30 
   Саллі / Sully (2016) 720p Ukr/Eng | Sub Eng 11FrYkT  13 / 0   2.7 GB   2016-12-08 08:00 
   Саллі / Sully (2016) Ukr/Eng Covenant  17 / 0   1.45 GB   2016-12-07 23:29 
[email protected] 
VIP


З нами з: 25.03.17
Востаннє: 23.07.19
Повідомлень: 321

2018-11-20 01:34  
Неймовірна історія
Ваш часовий пояс: GMT + 2 Години

Нова тема   Відповісти