Нічний Адміністратор (Сезон 1, Серії 1) / The Night Manager (Season 1, Episode 1) (2016) 720p-mini Ukr/Eng | Sub Ukr

Нові коментарі

Нова тема   Відповісти
Останній раз роздавалося Ліхтарник (2018-01-19)
Автор Повідомлення
RobotaGolosom 
Відео Гуртом - фільмокрай
Відео Гуртом - фільмокрай


З нами з: 09.03.15
Востаннє: 12.12.18
Повідомлень: 373

2016-12-06 21:15  
Нічний Адміністратор (Сезон 1, Серії 1) / The Night Manager (Season 1, Episodes 1) (2016) 720p-mini Ukr/Eng | Sub Ukr

Нічний Адміністратор (Сезон 1, Серії 1) / The Night Manager (Season 1, Episode 1) (2016) 720p-mini Ukr/Eng | Sub Ukr

Жанр: кримінальний, трилер, драма
Країна: Великобританія, США



Кінокомпанія: The Ink Factory, BBC, AMC
Режисер: Сюзанна Бір
Актори: Том Гідлстон, Г'ю Лорі, Елізабет Дебікі, Олівія Колмен та інші

Сюжет:
Співробітниця британської розвідки Берр наймає колишнього солдата Джонатана Пайна. Між двома розвідувальними організаціями, які базуються у Вайтхоллі і Вашингтоні, існує альянс, який відправляє Пайна в синдикат по торгівлі зброєю. Він повинен добитись довіри у торговця зброєю Річарда Роупера, його дівчини Джед і їхнього помічника Коркорана.


Тривалість: 1 серія: 57:00 (цілком серій: 6)
Перелік серій
«Серія 1»
Якість:
Відео:
кодек:
розмір кадру: 1280 х 720
бітрейт: 1148 кб/с

Аудіо # 1:
мова: українська
переклад: двоголосий закадровий
кодек: 2.0
бітрейт: 224 кб/с

Аудіо # 2:
мова: англійська
переклад: оригінал
кодек: 2.0
бітрейт: 64 кб/с

Субтитри:
мова: українська
тип: програмні (м'які)
формат: *.srt
Info
General
Unique ID : 195690172229786322955484965288898948586 (0x93388E66875A22DDAC76600AAE836DEA)
Complete name : I:\media\[Робота Голосом] Нічний Адміністратор (The Night Manager) [1 з 6] [ 720p ] [UKR, ENG+SUB].
Format :
Format version : Version 4 / Version 2
File size : 592 MiB
Duration : 57 min
Overall bit rate : 1 438 kb/s
Encoded date : UTC 2016-12-06 18:16:34
Writing application : v9.4.0 ('Knurl') 64bit
Writing library : libebml v1.3.4 + v1.4.5

Video
ID : 1
Format : AVC
Format/Info : Advanced Video Codec
Format profile : [email protected]
Format settings, CABAC : Yes
Format settings, ReFrames : 5 frames
Codec ID : V_MPEG4/ISO/AVC
Duration : 57 min
Bit rate : 1 148 kb/s
Width : 1 280 pixels
Height : 720 pixels
Display aspect ratio : 16:9
Frame rate mode : Constant
Frame rate : 25.000 FPS
Color space : YUV
Chroma subsampling : 4:2:0
Bit depth : 8 bits
Scan type : Progressive
Bits/(Pixel*Frame) : 0.050
Stream size : 473 MiB (80%)
Writing library : core 133 r2334 a3ac64b
Encoding settings : cabac=1 / ref=5 / deblock=1:-1:-1 / analyse=0x3:0x113 / me=umh / subme=7 / psy=1 / psy_rd=1.00:0.00 / mixed_ref=1 / me_range=16 / chroma_me=1 / trellis=2 / 8x8dct=1 / cqm=0 / deadzone=21,11 / fast_pskip=1 / chroma_qp_offset=-2 / threads=48 / lookahead_threads=5 / sliced_threads=0 / nr=0 / decimate=1 / interlaced=0 / bluray_compat=0 / constrained_intra=0 / bframes=3 / b_pyramid=0 / b_adapt=1 / b_bias=0 / direct=3 / weightb=1 / open_gop=0 / weightp=2 / keyint=250 / keyint_min=25 / scenecut=40 / intra_refresh=0 / rc_lookahead=40 / rc=2pass / mbtree=1 / bitrate=1148 / ratetol=1.0 / qcomp=0.60 / qpmin=10 / qpmax=51 / qpstep=4 / cplxblur=20.0 / qblur=0.5 / vbv_maxrate=20000 / vbv_bufsize=25000 / nal_hrd=none / ip_ratio=1.40 / aq=1:1.00
Language : Japanese
Default : Yes
Forced : No

Audio #1
ID : 2
Format : AC-3
Format/Info : Audio Coding 3
Mode extension : CM (complete main)
Format settings, Endianness : Big
Codec ID : A_AC3
Duration : 57 min
Bit rate mode : Constant
Bit rate : 224 kb/s
Channel(s) : 2 channels
Channel positions : Front: L R
Sampling rate : 48.0 kHz
Frame rate : 31.250 FPS (1536 spf)
Compression mode : Lossy
Stream size : 92.2 MiB (16%)
Title : Українська
Language : Ukrainian
Default : Yes
Forced : No

Audio #2
ID : 3
Format :
Format/Info : Advanced Audio Codec
Format profile : HE- / LC
Codec ID : A_AAC
Duration : 57 min
Bit rate : 64.0 kb/s
Channel(s) : 2 channels
Channel positions : Front: L R
Sampling rate : 48.0 kHz / 24.0 kHz
Frame rate : 23.438 FPS (1024 spf)
Compression mode : Lossy
Delay relative to video : 31 ms
Stream size : 26.3 MiB (4%)
Title : Англійська
Language : English
Default : No
Forced : No

Text
ID : 4
Format : UTF-8
Codec ID : S_TEXT/UTF8
Codec ID/Info : UTF-8 Plain Text
Duration : 56 min
Bit rate : 85 b/s
Count of elements : 616
Stream size : 35.3 KiB (0%)
Title : Українські (повні)
Language : Ukrainian
Default : No
Forced : No
Скріншоти



Семпл:
https://mega.nz/#!9xoVgLSB!FBl15tZOvDg6LC7rPdwsWEpQ-ogFtZ8MkPleeL_ilus
Реліз від:

Переклад: Sgt
Ролі озвучили: Олексій Вакуленко, Людмила Чиркова
Робота зі звуком: Олексій Вакуленко





Авторський реліз (завантажувати можна без реєстрації)
 Трекер:    Зареєстрований   

Завантажити / скачати серіал українською



відео для новачків



 Зареєстрований:   2016-12-06 21:15
 Розмір:   592 MB 
 Оцінка серіалу:   9.8/10 (Голосів: 6)
   
11FrYkT 
Модератор відео


З нами з: 20.02.11
Востаннє: 18.12.18
Повідомлень: 5276

2016-12-06 21:32  
RobotaGolosom , те саме
в мережі є краще відео це взагалі міні

[email protected] 
Відео Гуртом - дизайнер
Відео Гуртом - дизайнер


З нами з: 20.10.10
Востаннє: 16.06.18
Повідомлень: 253

2016-12-07 18:16  
RobotaGolosom
Додайте семпл озвучення.

RobotaGolosom 
Відео Гуртом - фільмокрай
Відео Гуртом - фільмокрай


З нами з: 09.03.15
Востаннє: 12.12.18
Повідомлень: 373

2016-12-07 18:41  
[email protected]
додав

[email protected] 
Відео Гуртом - дизайнер
Відео Гуртом - дизайнер


З нами з: 20.10.10
Востаннє: 16.06.18
Повідомлень: 253

2016-12-07 20:58  
RobotaGolosom, дякую.
RobotaGolosom 
Відео Гуртом - фільмокрай
Відео Гуртом - фільмокрай


З нами з: 09.03.15
Востаннє: 12.12.18
Повідомлень: 373

2016-12-08 20:58  
Просимо залишати відгуки щодо озвучення. Критика дасть змогу покращити його в майбутньому!
igor911 
Відео Гуртом
Відео Гуртом


З нами з: 18.01.08
Востаннє: 18.12.18
Повідомлень: 11622

2017-01-25 21:05  
RobotaGolosom написано:
Bits/(Pixel*Frame) : 0.050

Додаток Правил до релізів в якості HD написано:
5. Обов'язкові технічні вимоги:
Параметри кодування мають відповідати хоча б me=umh, subme=7, ref=3
2pass: значення Bits/(Pixel*Frame) має бути не меншим, ніж 0.12
mini - це релізи, в яких значення Bits/(Pixel*Frame) менше, ніж 0.16


При оновленні релізу замініть відеоряд на якісніший, цей не відповідає Правилам розділу, поки ставлю "недооформлено".

Patriot_ukr 
VIP


З нами з: 06.04.15
Востаннє: 16.12.18
Повідомлень: 2271

2017-01-26 17:53  
igor911
Думаю, оновлення не буде, є ж озвучення від АМС.

Ваш часовий пояс: GMT + 2 Години

Нова тема   Відповісти