Щось / The Thing [Remastered] (1982) Remux 1080p 2xUkr/Eng | Sub Ukr/Eng

Нові коментарі

Нова тема   Відповісти
Автор Повідомлення
staf777 
Відео Гуртом - підтримка та поширення
Відео Гуртом - підтримка та поширення


З нами з: 16.11.16
Востаннє: 16.08.17
Повідомлень: 522

2016-12-06 17:04  
Щось / The Thing [Remastered] (1982) Remux 1080p 2xUkr/Eng | Sub Ukr/Eng

Щось / The Thing [Remastered] (1982) Remux 1080p 2xUkr/Eng | Sub Ukr/Eng


Жанр: жахи, детектив, фантастика, трилер
Країна: США

Top 250 #173

Кінокомпанія: Universal Pictures, Turman-Foster Company
Режисер: Джон Карпентер / John Carpenter
Актори: Курт Расел / Kurt Russell), Вілфорд Брімлі / Wilford Brimley, Т.К. Картер / T.K. Carter, Девід Кленнон / David Clennon, Кейт Девід / Keith David, Річард Дісарт / Richard Dysart, Чарльз Галлаган / Charles Hallahan, Пітер Малоні / Peter Maloney, Річард Мейсер / Richard Masur, Дональд Моффат / Donald Moffat, Джоел Поліс / Joel Polis, Томас Дж. Вейтс / Thomas G. Waites, Норберт Вайссер / Norbert Weisser, Ларрі Джей Франко / Larry J. Franco, Нате Ірвін / Nate Irwin та інші

Сюжет:
Команді вчених американської дослідницької бази в Антарктиці доведеться зіткнутися з нез'ясовним, жахливим кошмаром. Відрізані від усього світу полярники вступають у нерівну сутичку з інопланетною тварюкою, яка пробудилася після тисячолітньої сплячки в льодах, нещадною істотою, яка прокинулося і ... зголодніла ... «Щось» вважається не тільки кращим фільмом відомого фахівця з жахів, режисера Джона Карпентера, але й мабуть одним з кращих фантастичних фільмів минулого двадцятого століття. Картина виключно напружена. Відмінна, страшна музика. Спец-ефекти початку вісімдесятих зроблені настільки реально, що навіть сьогодні виглядають більш ніж гідно ...


Тривалість: 01:48:42
Якість: Remux 1080p
Відео:
кодек:
розмір кадру: 1920x1080
бітрейт: 33,2 Mбіт/с

Аудіо # 1:
мова: українська
переклад: двоголосий закадровий
кодек: 2.0
бітрейт: 192 кб/с

Аудіо # 2:
мова: українська
переклад: двоголосий закадровий =
кодек: 2.0
бітрейт: 192 кб/с

Аудіо # 3:
мова: англійська
переклад: оригінал
кодек: -HD MA 5.1
бітрейт: 3840 кб/с

Аудіо # 4:
мова: англійська
переклад: коментарі оператора Діна Канді
кодек: 2.0
бітрейт: 192 кб/с

Аудіо # 5:
мова: англійська
переклад: коментарі продюсера Стюарта Коена
кодек: 2.0
бітрейт: 192 кб/с

Аудіо # 6:
мова: англійська
переклад: коментарі режисера Джона Карпентера та актора Курта Рассела
кодек: 2.0
бітрейт: 192 кб/с

Субтитри # 1:
мова: українська
тип: пререндерні
формат: PGS

Субтитри # 2 -3:
мова: англійська (повні, SDH)
тип: пререндерні
формат: PGS
Info
General
Unique ID : 201724872605782637423000820300749006657 (0x97C2CC19C010C107AE1B01D7C71CE741)
Format :
Format version : Version 4 / Version 2
File size : 28.8 GiB
Duration : 1h 48mn
Overall bit rate : 38.0 Mbps
Movie name : The Thing (1982) Remux 1080p 2xUkr/Eng | Sub Ukr/Eng
Encoded date : UTC 2016-12-08 04:26:19
Writing application : mkvmerge v9.5.0 ('Quiet Fire') 64bit
Writing library : libebml v1.3.4 + libmatroska v1.4.5
Attachements : cover.jpg.jpg

Video
ID : 1
Format : AVC
Format/Info : Advanced Video Codec
Format profile : [email protected]
Format settings, CABAC : Yes
Format settings, ReFrames : 4 frames
Codec ID : V_MPEG4/ISO/AVC
Duration : 1h 48mn
Bit rate mode : Constant
Bit rate : 33.2 Mbps
Nominal bit rate : 35.0 Mbps
Width : 1 920 pixels
Height : 1 080 pixels
Display aspect ratio : 16:9
Frame rate mode : Constant
Frame rate : 23.976 (24000/1001) fps
Color space : YUV
Chroma subsampling : 4:2:0
Bit depth : 8 bits
Scan type : Progressive
Bits/(Pixel*Frame) : 0.667
Stream size : 25.1 GiB (87%)
Title : The Thing (1982) Remux 1080p 2xUkr\Eng Sub Ukr\Eng
Default : Yes
Forced : No

Audio #1
ID : 2
Format : AC-3
Format/Info : Audio Coding 3
Mode extension : CM (complete main)
Format settings, Endianness : Big
Codec ID : A_AC3
Duration : 1h 48mn
Bit rate mode : Constant
Bit rate : 192 Kbps
Channel(s) : 2 channels
Channel positions : Front: L R
Sampling rate : 48.0 KHz
Frame rate : 31.250 fps (1536 spf)
Compression mode : Lossy
Stream size : 149 MiB (1%)
Title : [UA-DVO-ТРК Україна][, 2/0 192 kbps]
Language : Ukrainian
Default : No
Forced : Yes

Audio #2
ID : 3
Format : AC-3
Format/Info : Audio Coding 3
Mode extension : CM (complete main)
Format settings, Endianness : Big
Codec ID : A_AC3
Duration : 1h 48mn
Bit rate mode : Constant
Bit rate : 192 Kbps
Channel(s) : 2 channels
Channel positions : Front: L R
Sampling rate : 48.0 KHz
Frame rate : 31.250 fps (1536 spf)
Compression mode : Lossy
Stream size : 149 MiB (1%)
Title : [UA-DVO-НЛО-TV][, 2/0 192 kbps]
Language : Ukrainian
Default : Yes
Forced : Yes

Audio #3
ID : 4
Format :
Format/Info : Digital Theater Systems
Format profile : MA / Core
Mode : 16
Format settings, Endianness : Big
Codec ID : A_DTS
Duration : 1h 48mn
Bit rate mode : Variable / Constant
Bit rate : 3 840 Kbps / 1 509 Kbps
Channel(s) : 6 channels
Channel positions : Front: L C R, Side: L R, LFE
Sampling rate : 48.0 KHz
Frame rate : 93.750 fps (512 spf)
Bit depth : 24 bits
Compression mode : Lossless / Lossy
Stream size : 2.93 GiB (10%)
Title : -HD MA 5.1, ~3860 kbps[Original]
Language : English
Default : No
Forced : No

Audio #4
ID : 5
Format : AC-3
Format/Info : Audio Coding 3
Mode extension : CM (complete main)
Format settings, Endianness : Big
Codec ID : A_AC3
Duration : 1h 48mn
Bit rate mode : Constant
Bit rate : 192 Kbps
Channel(s) : 2 channels
Channel positions : Front: L R
Sampling rate : 48.0 KHz
Frame rate : 31.250 fps (1536 spf)
Compression mode : Lossy
Stream size : 149 MiB (1%)
Title : [, 2/0 192 kbps]|Commentary With Director Of Photography Dean Cundey|
Language : English
Default : No
Forced : No

Audio #5
ID : 6
Format : AC-3
Format/Info : Audio Coding 3
Mode extension : CM (complete main)
Format settings, Endianness : Big
Codec ID : A_AC3
Duration : 1h 48mn
Bit rate mode : Constant
Bit rate : 192 Kbps
Channel(s) : 2 channels
Channel positions : Front: L R
Sampling rate : 48.0 KHz
Frame rate : 31.250 fps (1536 spf)
Compression mode : Lossy
Stream size : 149 MiB (1%)
Title : [, 2/0 192 kbps]|Commentary With Co-producer Stuart Cohen|
Language : English
Default : No
Forced : No

Audio #6
ID : 7
Format : AC-3
Format/Info : Audio Coding 3
Mode extension : CM (complete main)
Format settings, Endianness : Big
Codec ID : A_AC3
Duration : 1h 48mn
Bit rate mode : Constant
Bit rate : 192 Kbps
Channel(s) : 2 channels
Channel positions : Front: L R
Sampling rate : 48.0 KHz
Frame rate : 31.250 fps (1536 spf)
Compression mode : Lossy
Stream size : 149 MiB (1%)
Title : [, 2/0 192 kbps]|Commentary By Director John Carpenter And Actor Kurt Russell|
Language : English
Default : No
Forced : No

Text #1
ID : 8
Format : PGS
Muxing mode : zlib
Codec ID : S_HDMV/PGS
Codec ID/Info : Picture based subtitle format used on BDs/HD-DVDs
Duration : 1h 41mn
Bit rate : 3 164 bps
Count of elements : 1206
Stream size : 2.30 MiB (0%)
Title : [SUB-UA]
Language : Ukrainian
Default : Yes
Forced : No

Text #2
ID : 9
Format : PGS
Muxing mode : zlib
Codec ID : S_HDMV/PGS
Codec ID/Info : Picture based subtitle format used on BDs/HD-DVDs
Duration : 1h 36mn
Bit rate : 3 672 bps
Count of elements : 1362
Stream size : 2.53 MiB (0%)
Title : [SUB-Original]
Language : English
Default : No
Forced : No

Text #3
ID : 10
Format : PGS
Muxing mode : zlib
Codec ID : S_HDMV/PGS
Codec ID/Info : Picture based subtitle format used on BDs/HD-DVDs
Duration : 1h 39mn
Bit rate : 12.9 Kbps
Count of elements : 1391
Stream size : 9.21 MiB (0%)
Title : (SDH)
Language : English
Default : No
Forced : No
Скріншоти






Джерело: &
Подяка п. Sando7 за наданий сирий звук до Аудіо #1 і п. xslim за наданий сирий звук до Аудіо #2.
Автор доріжок - karvai0
Особиста оцінка: 10 - без зайвих вагань рекомендую всім!


Золотий реліз (завантажене не впливає на рейтинг)
 Трекер:    Зареєстрований   

Завантажити / скачати фільм українською



відео для новачків



 Зареєстрований:   2016-12-08 20:17
 Розмір:   28.82 GB 
 Оцінка фільму:   8.9/10 (Голосів: 10)
   
Інші релізи
   Щось / The Thing (1982) 2xUkr/Eng | Sub Ukr/Eng karvai0  2 / 0   2.18 GB   2014-11-30 13:05 
   Щось / The Thing (1982) 1080p 2xUkr/Eng | Sub Ukr / Eng Sando7  1 / 0   4.66 GB   2014-11-27 14:02 
   Щось / The Thing (1982) DVD5 Ukr/Eng | Sub Ukr/Eng/Rus kinoreliz  2 / 0   4.2 GB   2014-02-24 09:40 
   Щось / The Thing (1982) 720 Ukr/Eng | Sub Rus/Eng vitalicio  1 / 0   4.66 GB   2010-08-26 12:22 
staf777 
Відео Гуртом - підтримка та поширення
Відео Гуртом - підтримка та поширення


З нами з: 16.11.16
Востаннє: 16.08.17
Повідомлень: 522

2016-12-06 17:22  
"Щось" вважається не тільки кращим фільмом відомого фахівця з жахам, режисера Джона Карпентера, а й мабуть одним з кращих фантастичних фільмів минулого двадцятого століття.
Neo7g 
Частий відвідувач


З нами з: 21.01.11
Востаннє: 14.08.17
Повідомлень: 27

2016-12-08 23:17  
Дякую за ШИКАРНУ якість
sandman 
Поважний учасник


З нами з: 12.08.12
Востаннє: 21.08.17
Повідомлень: 167

2016-12-10 14:58  
Фільм чудовий, якість відмінна, дякую
Chornobruvui 
Частий відвідувач


З нами з: 30.01.11
Востаннє: 21.08.17
Повідомлень: 35

2017-01-08 20:24  
Цитата:
Спец-ефекти початку вісімдесятих зроблені настільки реально, що навіть сьогодні виглядають більш ніж гідно


Порівняно із "Чужим" 1979-го, тут нікудишні спецефекти. Та і загалом слабенький фільм

Ваш часовий пояс: GMT + 2 Години

Нова тема   Відповісти