Керол / Carol (2015) Remux 1080p Ukr/Eng | Sub Eng

Нові коментарі

Нова тема   Відповісти
Останній раз роздавалося tarasidze (2017-08-22)
Автор Повідомлення
staf777 
Відео Гуртом - підтримка та поширення
Відео Гуртом - підтримка та поширення


З нами з: 16.11.16
Востаннє: 16.08.17
Повідомлень: 522

2016-12-06 14:14  
Керол / Carol (2015) Remux 1080p Ukr/Eng | Sub Eng

Керол / Carol (2015) Remux 1080p Ukr/Eng | Sub Eng


Жанр: драма, романтичний
Країна: Велика Британія, США



Кінокомпанія: Number 9 Films, Dirty Films, Film4
Режисер: Тодд Гейнс
Актори: Кейт Бланшетт, Руні Мара, Кайл Чандлер, Джейк Лесі, Сара Полсон, Джон Маґаро, Корі Майкл Сміт, Кевін Краулі, Нік Паїч, Керрі Браунштейн, Трент Роуленд, Емі Ворнер, Майкл Гейні, Венді Лардін та інші

Сюжет:
У неповторній атмосфері вишуканого Нью-Йорка 50-х років юна Терез зустрічає Керол, красиву зрілу жінку, яка нудиться в шлюбі без любові. Швидкоплинний проблиск потягу переростає у почуття, які назавжди змінять їх життя. Але як довіритися любові, якщо твоя доля залежить від забобонів безжального часу?
Чи знаєте ви, що...

• Картина є екранізацією романа Патриції Хайсміт 1953 року «Ціна солі» (The Price of Salt).
• Міа Васіковська розглядалася на роль Терези.
Тривалість: 01:58:29
Якість: Remux 1080p
Відео:
кодек:
розмір кадру: 1920x1080
бітрейт: 29.8 Mб/с

Аудіо # 1:
мова: українська
переклад: багатоголосий закадровий
кодек: -HD MA 5.1
бітрейт: 2984 кб/с

Аудіо # 2:
мова: англійська
переклад: оригінал
кодек: -HD MA 5.1
бітрейт: 3503 кб/с

Субтитри:
мова: англійська (SDH)
тип: пререндерні
формат: PGS
Info
General
Unique ID : 208268628405311216033328229320757433425 (0x9CAF142BBA2C3B25BC7A4A170E815451)
Complete name : K:\Фільми в HD\Драма\Carol (2015) Remux 1080p.
Format :
Format version : Version 4 / Version 2
File size : 30.1 GiB
Duration : 1h 58mn
Overall bit rate mode : Variable
Overall bit rate : 36.3 Mbps
Movie name : Carol (2015) Remux 1080p Ukr/Eng | Sub /Eng
Encoded date : UTC 2016-12-07 08:39:03
Writing application : mkvmerge v9.5.0 ('Quiet Fire') 64bit
Writing library : libebml v1.3.4 + libmatroska v1.4.5
Attachements : cover.jpg.jpg

Video
ID : 1
Format : AVC
Format/Info : Advanced Video Codec
Format profile : [email protected]
Format settings, CABAC : Yes
Format settings, ReFrames : 4 frames
Codec ID : V_MPEG4/ISO/AVC
Duration : 1h 58mn
Bit rate mode : Variable
Bit rate : 29.8 Mbps
Maximum bit rate : 37.0 Mbps
Width : 1 920 pixels
Height : 1 080 pixels
Display aspect ratio : 16:9
Frame rate mode : Constant
Frame rate : 23.976 (24000/1001) fps
Color space : YUV
Chroma subsampling : 4:2:0
Bit depth : 8 bits
Scan type : Progressive
Bits/(Pixel*Frame) : 0.599
Stream size : 24.7 GiB (82%)
Default : Yes
Forced : No

Audio #1
ID : 2
Format :
Format/Info : Digital Theater Systems
Format profile : MA / Core
Mode : 16
Format settings, Endianness : Big
Codec ID : A_DTS
Duration : 1h 58mn
Bit rate mode : Variable / Constant
Bit rate : 2 984 Kbps / 1 509 Kbps
Channel(s) : 6 channels
Channel positions : Front: L C R, Side: L R, LFE
Sampling rate : 48.0 KHz
Frame rate : 93.750 fps (512 spf)
Bit depth : 24 bits
Compression mode : Lossless / Lossy
Delay relative to video : 21ms
Stream size : 2.47 GiB (8%)
Title : [UA-MVO]-HD MA 5.1, ~2983kbps
Language : Ukrainian
Default : Yes
Forced : No

Audio #2
ID : 3
Format :
Format/Info : Digital Theater Systems
Format profile : MA / Core
Mode : 16
Format settings, Endianness : Big
Codec ID : A_DTS
Duration : 1h 58mn
Bit rate mode : Variable / Constant
Bit rate : 3 503 Kbps / 1 509 Kbps
Channel(s) : 6 channels
Channel positions : Front: L C R, Side: L R, LFE
Sampling rate : 48.0 KHz
Frame rate : 93.750 fps (512 spf)
Bit depth : 24 bits
Compression mode : Lossless / Lossy
Stream size : 2.90 GiB (10%)
Title : -HD MA 5.1, ~3502 kbps[ORIGINAL]
Language : English
Default : No
Forced : No

Text
ID : 4
Format : PGS
Muxing mode : zlib
Codec ID : S_HDMV/PGS
Codec ID/Info : Picture based subtitle format used on BDs/HD-DVDs
Duration : 1h 57mn
Bit rate : 26.2 Kbps
Count of elements : 3582
Stream size : 22.1 MiB (0%)
Title : [SUB-Original]
Default : Yes
Forced : No
Скріншоти
Джерело: &


Золотий реліз (завантажене не впливає на рейтинг)
 Трекер:    Зареєстрований   

Завантажити / скачати фільм українською



відео для новачків



 Зареєстрований:   2016-12-07 13:07
 Розмір:   30.05 GB 
 Оцінка фільму:   8.3/10 (Голосів: 6)
   
Інші релізи
   Керол / Carol (2015) 720p Ukr/Eng | Sub Eng 11FrYkT  2 / 0   8.66 GB   2016-04-10 08:14 
   Керол / Carol (2015) Ukr/Eng Gelios  10 / 0   2.18 GB   2016-04-10 07:56 
Ваш часовий пояс: GMT + 2 Години

Нова тема   Відповісти