Керол / Carol (2015) Remux 1080p Ukr/Eng | Sub Eng

Нові коментарі

Нова тема   Відповісти
Автор Повідомлення
staf777 
Відео Гуртом - підтримка та поширення
Відео Гуртом - підтримка та поширення


З нами з: 16.11.16
Востаннє: 23.09.20
Повідомлень: 4030

2016-12-06 14:14  
Керол / Carol (2015) Remux 1080p Ukr/Eng | Sub Eng



Жанр: драма, ЛГБТ, романтичний
Країна: Велика Британія, США



Кінокомпанія: Number 9 Films, Dirty Films, Film4
Режисер: Тодд Гейнс
Актори: Кейт Бланшетт, Руні Мара, Кайл Чандлер, Джейк Лесі, Сара Полсон, Джон Маґаро, Корі Майкл Сміт, Кевін Краулі, Нік Паїч, Керрі Браунштейн, Трент Роуленд, Емі Ворнер, Майкл Гейні, Венді Лардін та інші

Сюжет:
У неповторній атмосфері вишуканого Нью-Йорка 50-х років юна Терез зустрічає Керол, красиву зрілу жінку, яка нудиться в шлюбі без любові. Швидкоплинний проблиск потягу переростає у почуття, які назавжди змінять їх життя. Але як довіритися любові, якщо твоя доля залежить від забобонів безжального часу?
Чи знаєте ви, що...

• Картина є екранізацією романа Патриції Хайсміт 1953 року «Ціна солі» (The Price of Salt).
• Міа Васіковська розглядалася на роль Терези.
Тривалість: 01:58:29
Якість: Remux 1080p
Відео:
кодек:
розмір кадру: 1920x1080
бітрейт: 29,8 Mб/с

Аудіо # 1:
мова: українська
переклад: багатоголосий закадровий
кодек: -HD MA 5.1
бітрейт: 2984 кб/с

Аудіо # 2:
мова: українська
переклад: багатоголосий закадровий
кодек: 5.1
бітрейт: 448 кб/с

Аудіо # 3:
мова: англійська
переклад: оригінал
кодек: -HD MA 5.1
бітрейт: 3503 кб/с

Субтитри:
мова: англійська
тип: пререндерні
формат: PGS
Info
General
Unique ID : 237098026098480151104721763433562672749 (0xB25F6B37E8168DC297BC8B044E5E8E6D)
Complete name : L:\Фільми в HD\Драма\Carol (2015) Remux 1080p [Ukr Eng] [Hurtom].
Format :
Format version : Version 4 / Version 2
File size : 30.4 GiB
Duration : 1 h 58 min
Overall bit rate mode : Variable
Overall bit rate : 36.8 Mb/s
Movie name : Carol (2015) Remux 1080p [Ukr Eng] [Hurtom]
Encoded date : UTC 2018-12-16 11:49:52
Writing application : v24.0.0 ('Beyond The Pale') 64-bit
Writing library : libebml v1.3.6 + v1.4.9
Cover : Yes
Attachments : cover.jpg.jpg

Video
ID : 1
Format : AVC
Format/Info : Advanced Video Codec
Format profile : [email protected]
Format settings : CABAC / 4 Ref Frames
Format settings, CABAC : Yes
Format settings, ReFrames : 4 frames
Codec ID : V_MPEG4/ISO/AVC
Duration : 1 h 58 min
Bit rate mode : Variable
Bit rate : 29.8 Mb/s
Maximum bit rate : 37.0 Mb/s
Width : 1 920 pixels
Height : 1 080 pixels
Display aspect ratio : 16:9
Frame rate mode : Constant
Frame rate : 23.976 (24000/1001) FPS
Color space : YUV
Chroma subsampling : 4:2:0
Bit depth : 8 bits
Scan type : Progressive
Bits/(Pixel*Frame) : 0.599
Stream size : 24.7 GiB (81%)
Default : Yes
Forced : No

Audio #1
ID : 2
Format :
Format/Info : Digital Theater Systems
Format profile : MA / Core
Codec ID : A_DTS
Duration : 1 h 58 min
Bit rate mode : Variable / Constant
Bit rate : 2 984 kb/s / 1 509 kb/s
Channel(s) : 6 channels
Channel positions : Front: L C R, Side: L R, LFE
Sampling rate : 48.0 kHz
Frame rate : 93.750 FPS (512 SPF)
Bit depth : 24 bits
Compression mode : Lossless / Lossy
Delay relative to video : 21 ms
Stream size : 2.47 GiB (8%)
Title : -HD MA 5.1
Language : Ukrainian
Default : Yes
Forced : Yes

Audio #2
ID : 3
Format : AC-3
Format/Info : Audio Coding 3
Codec ID : A_AC3
Duration : 1 h 58 min
Bit rate mode : Constant
Bit rate : 448 kb/s
Channel(s) : 6 channels
Channel positions : Front: L C R, Side: L R, LFE
Sampling rate : 48.0 kHz
Frame rate : 31.250 FPS (1536 SPF)
Bit depth : 16 bits
Compression mode : Lossy
Stream size : 380 MiB (1%)
Title : 5.1
Language : Ukrainian
Service kind : Complete Main
Default : No
Forced : No

Audio #3
ID : 4
Format :
Format/Info : Digital Theater Systems
Format profile : MA / Core
Codec ID : A_DTS
Duration : 1 h 58 min
Bit rate mode : Variable / Constant
Bit rate : 3 503 kb/s / 1 509 kb/s
Channel(s) : 6 channels
Channel positions : Front: L C R, Side: L R, LFE
Sampling rate : 48.0 kHz
Frame rate : 93.750 FPS (512 SPF)
Bit depth : 24 bits
Compression mode : Lossless / Lossy
Stream size : 2.90 GiB (10%)
Title : -HD MA 5.1[ORIGINAL]
Language : English
Default : No
Forced : No

Text
ID : 5
Format : PGS
Muxing mode : zlib
Codec ID : S_HDMV/PGS
Codec ID/Info : Picture based subtitle format used on BDs/HD-DVDs
Duration : 1 h 57 min
Bit rate : 54.4 kb/s
Count of elements : 3582
Stream size : 45.9 MiB (0%)
Title : [SUB-Original]
Default : No
Forced : No
Скріншоти

Джерело: &
Особиста оцінка: 0 - не дивився
ЗАЛИШАЙТЕСЬ ЯКОМОГА ДОВШЕ НА РОЗДАЧІ!

СКАЧАВ САМ - ДАЙ СКАЧАТИ ІНШИМ



Золотий реліз (завантажене не впливає на рейтинг)
 Трекер:    Зареєстрований   

Завантажити / скачати фільм українською



відео для новачків



 Зареєстрований:   2018-12-16 16:31
 Розмір:   30.42 GB 
 Оцінка фільму:   8.5/10 (Голосів: 14)
   
Інші релізи
   Керол / Carol (2015) 720p Ukr/Eng | Sub Eng 11FrYkT  2 / 0   8.66 GB   2016-04-10 08:14 
   Керол / Carol (2015) Ukr/Eng Gelios  3 / 0   2.18 GB   2016-04-10 07:56 
staf777 
Відео Гуртом - підтримка та поширення
Відео Гуртом - підтримка та поширення


З нами з: 16.11.16
Востаннє: 23.09.20
Повідомлень: 4030

2018-12-16 16:31  
Додав доріжку 5.1
Ваш часовий пояс: GMT + 2 Години

Нова тема   Відповісти