Морган / Morgan (2016) AVC Ukr/Eng | Sub Ukr/Eng

Нові коментарі

Нова тема   Відповісти
Автор Повідомлення
Anonymous 







2016-12-05 20:12  
Морган / Morgan (2016) AVC Ukr/Eng | Sub Ukr/Eng


Морган / Morgan (2016) AVC Ukr/Eng | Sub Ukr/Eng


Жанр: жахи,фантастика, трилер, детектив
Країна: США
Кінокомпанія: Scott Free Productions



Режисер: Люк Скотт / Luke Scott
Продюсер: Рідлі Скотт / Ridley Scott
Актори: Кейт Мара / Kate Mara, Аня Тейлор-Джой / Anya Taylor-Joy, Роуз Леслі / Rose Leslie, Майкл Йар / Michael Yare, Тобі Джонс / Toby Jones, Кріс Салліван / Chris Sullivan, Бойд Холбрук / Boyd Holbrook, Вінетт Робінсон / Vinette Robinson, Мішель Йєо / Michelle Yeoh, Брайан Кокс / Brian Cox, Пол Джаматті / Paul Giamatti та інші

Сюжет:
Співробітниця по усуненню аварій відправляється у віддалений секретний філіал, де має розслідувати і оцінити втрати від жахливої катастрофи. На місці вона дізнається, що те, що трапилося було викликано, здавалося б, невинною «людиною», чиє існування саме по собі є небезпечною таємницею

Офіційний український трейлер:


Рейтинг MPAA: R - особам до 17 років обов'язкова присутність батьків або дорослого опікуна
Вікова категорія: 16+

Тривалість: 01:31:52
Якість: AVC
Відео:
кодек:
розмір кадру: 1024 х 428
бітрейт: 1750 Кбіт/с

Аудіо # 1
мова: українська
переклад: професійний дубльований
кодек: 5.1
бітрейт: 448 Кбіт/с

Аудіо # 2
мова: англійська
переклад: оригінал
кодек: 5.1
бітрейт: 448 Кбіт/с

Субтитри # 1-2:
мова: українська (форсовані | повні)
тип: програмні (м'які)
формат: srt

Субтитри # 3-4:
мова: англійська (форсовані | повні)
тип: програмні (м'які)
формат: srt

Збережено оригінальні розділи, як на Blu-ray
Info
Код:
Format                      :
Format version              : Version 4 / Version 2
File size                   : 1.70 GiB
Duration                    : 1 h 31 min
Overall bit rate            : 2 645 kb/s

Video
ID                          : 1
Format                      : AVC
Format/Info                 : Advanced Video Codec
Format profile              : [email protected]
Format settings, CABAC      : Yes
Format settings, ReFrames   : 13 frames
Codec ID                    : V_MPEG4/ISO/AVC
Duration                    : 1 h 31 min
Bit rate                    : 1 750 kb/s
Width                       : 1 024 pixels
Height                      : 428 pixels
Display aspect ratio        : 2.40:1
Frame rate mode             : Constant
Frame rate                  : 23.976 (23976/1000) FPS
Color space                 : YUV
Chroma subsampling          : 4:2:0
Bit depth                   : 8 bits
Scan type                   : Progressive
Bits/(Pixel*Frame)          : 0.167
Stream size                 : 1.12 GiB (66%)
Title                       : Морган / Morgan (2016) AVC [ExKinoRay]
Writing library             : core 144 r2525 40bb568
Encoding settings           : cabac=1 / ref=13 / deblock=1:-2:-2 / analyse=0x3:0x113 / me=umh / subme=10 / psy=1 / psy_rd=1.00:0.05 / mixed_ref=1 / me_range=32 / chroma_me=1 / trellis=2 / 8x8dct=1 / cqm=0 / deadzone=21,11 / fast_pskip=1 / chroma_qp_offset=-3 / threads=12 / lookahead_threads=2 / sliced_threads=0 / nr=0 / decimate=1 / interlaced=0 / bluray_compat=0 / constrained_intra=0 / bframes=9 / b_pyramid=2 / b_adapt=2 / b_bias=0 / direct=3 / weightb=1 / open_gop=0 / weightp=2 / keyint=240 / keyint_min=23 / scenecut=40 / intra_refresh=0 / rc_lookahead=40 / rc=2pass / mbtree=0 / bitrate=1750 / ratetol=1.0 / qcomp=0.63 / qpmin=0 / qpmax=51 / qpstep=4 / cplxblur=20.0 / qblur=0.5 / vbv_maxrate=50000 / vbv_bufsize=62500 / nal_hrd=none / filler=0 / ip_ratio=1.40 / pb_ratio=1.30 / aq=1:1.00
Language                    : English
Default                     : Yes
Forced                      : No
Color range                 : Limited
Color primaries             : BT.709
Transfer characteristics    : BT.709
Matrix coefficients         : BT.709

Audio #1
ID                          : 2
Format                      : AC-3
Format/Info                 : Audio Coding 3
Mode extension              : CM (complete main)
Format settings, Endianness : Big
Codec ID                    : A_AC3
Duration                    : 1 h 31 min
Bit rate mode               : Constant
Bit rate                    : 448 kb/s
Channel(s)                  : 6 channels
Channel positions           : Front: L C R, Side: L R, LFE
Sampling rate               : 48.0 kHz
Frame rate                  : 31.250 FPS (1536 spf)
Bit depth                   : 16 bits
Compression mode            : Lossy
Stream size                 : 294 MiB (17%)
Title                       : Dub [Blu-ray EUR] 5.1 448 Kbps
Language                    : Ukrainian
Default                     : Yes
Forced                      : Yes

Audio #2
ID                          : 3
Format                      : AC-3
Format/Info                 : Audio Coding 3
Mode extension              : CM (complete main)
Format settings, Endianness : Big
Codec ID                    : A_AC3
Duration                    : 1 h 31 min
Bit rate mode               : Constant
Bit rate                    : 448 kb/s
Channel(s)                  : 6 channels
Channel positions           : Front: L C R, Side: L R, LFE
Sampling rate               : 48.0 kHz
Frame rate                  : 31.250 FPS (1536 spf)
Bit depth                   : 16 bits
Compression mode            : Lossy
Stream size                 : 294 MiB (17%)
Title                       : Original, 5.1 448 Kbps
Language                    : English
Default                     : No
Forced                      : No

Text #1
ID                          : 4
Format                      : UTF-8
Codec ID                    : S_TEXT/UTF8
Codec ID/Info               : UTF-8 Plain Text
Duration                    : 1 h 29 min
Bit rate                    : 1 b/s
Count of elements           : 27
Stream size                 : 1.27 KiB (0%)
Title                       : Ukr Forced
Language                    : Ukrainian
Default                     : Yes
Forced                      : Yes

Text #2
ID                          : 5
Format                      : UTF-8
Codec ID                    : S_TEXT/UTF8
Codec ID/Info               : UTF-8 Plain Text
Duration                    : 1 h 30 min
Bit rate                    : 73 b/s
Count of elements           : 1103
Stream size                 : 49.0 KiB (0%)
Title                       : Ukr Full
Language                    : Ukrainian
Default                     : No
Forced                      : No

Text #3
ID                          : 6
Format                      : UTF-8
Codec ID                    : S_TEXT/UTF8
Codec ID/Info               : UTF-8 Plain Text
Duration                    : 42 min 54 s
Bit rate                    : 1 b/s
Count of elements           : 14
Stream size                 : 372 Bytes (0%)
Title                       : Eng Forced
Language                    : English
Default                     : No
Forced                      : No

Text #4
ID                          : 7
Format                      : UTF-8
Codec ID                    : S_TEXT/UTF8
Codec ID/Info               : UTF-8 Plain Text
Duration                    : 1 h 28 min
Bit rate                    : 49 b/s
Count of elements           : 1194
Stream size                 : 32.0 KiB (0%)
Title                       : Eng full
Language                    : English
Default                     : No
Forced                      : No

Menu
00:00:00.000                : en:00:00:00.000
00:03:43.098                : en:00:03:43.098
00:07:22.400                : en:00:07:22.400
00:11:41.784                : en:00:11:41.784
00:16:04.338                : en:00:16:04.338
00:20:30.271                : en:00:20:30.271
00:25:36.326                : en:00:25:36.326
00:28:45.515                : en:00:28:45.515
00:34:20.267                : en:00:34:20.267
00:37:17.861                : en:00:37:17.861
00:40:46.110                : en:00:40:46.110
00:43:47.124                : en:00:43:47.124
00:48:14.225                : en:00:48:14.225
00:51:28.752                : en:00:51:28.752
00:54:45.991                : en:00:54:45.991
00:59:51.046                : en:00:59:51.046
01:03:44.404                : en:01:03:44.404
01:08:01.619                : en:01:08:01.619
01:11:43.758                : en:01:11:43.758
01:13:46.422                : en:01:13:46.422
01:17:03.702                : en:01:17:03.702
01:20:01.672                : en:01:20:01.672
01:22:32.531                : en:01:22:32.531
01:25:10.939                : en:01:25:10.939


Джерело: &


 Трекер:    Зареєстрований   

Завантажити / скачати фільм українською



відео для новачків



 Зареєстрований:   2017-01-13 19:30
 Розмір:   1.7 GB 
 Оцінка фільму:   5.9/10 (Голосів: 33)
   
Інші релізи
   Морган / Morgan (2016) 1080p Ukr/Eng | Sub Ukr/Eng sergiyko.5  2 / 0   10.58 GB   2017-01-14 11:24 
   Морган / Morgan (2016) Ukr/Eng | Sub Ukr/Eng igor911  14 / 3   1.75 GB   2017-01-13 23:41 
   Морган / Morgan (2016) Remux 1080p Ukr/Eng | Sub Ukr/Eng igor911  7 / 4   21.86 GB   2017-01-13 20:27 
   Морган / Morgan (2016) 720p Ukr/Eng | Sub Ukr/Eng 11FrYkT  11 / 4   4.23 GB   2017-01-13 19:14 
T-801 
Новенький


З нами з: 27.06.09
Востаннє: 25.04.17
Повідомлень: 13

2016-12-06 00:04  
Не вразив, трейлер набагато кращий.
Jack_Daniels 
VIP


З нами з: 30.07.10
Востаннє: 25.04.17
Повідомлень: 301

2016-12-06 14:00  
+1... Слабе кінО....
megatrambon 
Новенький


З нами з: 06.03.16
Востаннє: 24.04.17
Повідомлень: 1

2016-12-06 17:28  
Люди, а можна звукову доріжку окремо?
Anonymous 







2017-01-13 19:44  
Реліз оновлено!
Замінено українську доріжку з 2.0 на 5.1

OleGlvKarpaty 
Свій


З нами з: 20.12.11
Востаннє: 28.03.17
Повідомлень: 98

2017-01-18 00:18  
Фільм на один раз
eXteSy- 
VIP


З нами з: 06.04.09
Востаннє: 25.04.17
Повідомлень: 1522

2017-01-22 00:02  
По сюжету фільм дуже нагадав "Ex Machina" з тією різницею. що там був штучний комп’ютерний інтелект, а тут - штучний генетичний. Ще в цьому фільмі більше бойовика, але на користь йому це не дуже пішло. Фільм абсолютно стандартний і прохідний, забудеться через кілька днів. Дуже його витягує гарна картинка, чудові краєвиди. Плюс пів-бала додав за останні хвилини фільму.
6,5/10

Ваш часовий пояс: GMT + 2 Години

Нова тема   Відповісти