Морган / Morgan (2016) Remux 1080p Ukr/Eng | Sub Ukr/Eng

Нові коментарі

Нова тема   Відповісти
Автор Повідомлення
Anonymous 







2016-12-05 02:59  
Морган / Morgan (2016) Remux 1080p Ukr/Eng | Sub Ukr/Eng


Морган / Morgan (2016) Remux 1080p Ukr/Eng | Sub Ukr/Eng


Жанр: жахи,фантастика, трилер, детектив
Країна: США
Кінокомпанія: Scott Free Productions



Режисер: Люк Скотт / Luke Scott
Продюсер: Рідлі Скотт / Ridley Scott
Актори: Кейт Мара / Kate Mara, Аня Тейлор-Джой / Anya Taylor-Joy, Роуз Леслі / Rose Leslie, Майкл Йар / Michael Yare, Тобі Джонс / Toby Jones, Кріс Салліван / Chris Sullivan, Бойд Холбрук / Boyd Holbrook, Вінетт Робінсон / Vinette Robinson, Мішель Йєо / Michelle Yeoh, Брайан Кокс / Brian Cox, Пол Джаматті / Paul Giamatti та інші

Сюжет:
Співробітниця по усуненню аварій відправляється у віддалений секретний філіал, де має розслідувати і оцінити втрати від жахливої катастрофи. На місці вона дізнається, що те, що трапилося було викликано, здавалося б, невинною «людиною», чиє існування саме по собі є небезпечною таємницею

Офіційний український трейлер:


Рейтинг MPAA: R - особам до 17 років обов'язкова присутність батьків або дорослого опікуна
Вікова категорія: 16+

Тривалість: 01:31:52
Якість: Remux
Відео:
кодек:
розмір кадру: 1920 х 1080
бітрейт: 27,6 Мбіт/с

Аудіо # 1
мова: українська
переклад: професійний дубльований | студія LeDoyen
кодек: 5.1
бітрейт: 448 Кбіт/с
Інформація про дубляж:
Переклад: Федір Сидорук
Режисер дубляжу: Ольга Фокіна
Звукорежисер: Михайло Угрин
Ролі дублювали: Анна Чиж, Марія Іонова, Катерина Брайковська, Володимир Кокотунов, Дмитро Терещук, Максим Кондратюк, Євген Сінчуков, Михайло Кришталь, Лідія Муращенко, Тетяна Антонова, Олена Узлюк, Олександр Ігнатуша, Дмитро Завадський, Людмила Ардельян, Кирило Нікітенко
Дубльовано студією LeDoyen, зміксовано студією Deluxe Media.
Аудіо # 2
мова: англійська
переклад: оригінал
кодек: -HD MA 7.1
бітрейт: 4611 Кбіт/с

Аудіо # 3
мова: англійська
переклад: оригінал
кодек: 5.1
бітрейт: 640 Кбіт/с

Аудіо # 4
мова: англійська
переклад: описова
кодек: 5.1
бітрейт: 448 Кбіт/с

Аудіо # 5
мова: англійська
переклад: коментарі режисера Люка Скотта
кодек: 2.0
бітрейт: 224 Кбіт/с

Субтитри # 1-2:
мова: українська (форсовані | повні)
тип: пререндерні
формат: PGS

Субтитри # 3-5:
мова: англійська (повні | на коментарі Люка Скотта | форсовані)
тип: пререндерні
формат: PGS

Збережено оригінальні розділи, як на Blu-ray
Info
Код:
Format                      :
Format version              : Version 4 / Version 2
File size                   : 21.9 GiB
Duration                    : 1 h 31 min
Overall bit rate mode       : Variable
Overall bit rate            : 34.1 Mb/s

Video
ID                          : 1
Format                      : AVC
Format/Info                 : Advanced Video Codec
Format profile              : [email protected]
Format settings, CABAC      : Yes
Format settings, ReFrames   : 4 frames
Codec ID                    : V_MPEG4/ISO/AVC
Duration                    : 1 h 31 min
Bit rate mode               : Variable
Bit rate                    : 27.6 Mb/s
Maximum bit rate            : 29.5 Mb/s
Width                       : 1 920 pixels
Height                      : 1 080 pixels
Display aspect ratio        : 16:9
Frame rate mode             : Constant
Frame rate                  : 23.976 (24000/1001) FPS
Color space                 : YUV
Chroma subsampling          : 4:2:0
Bit depth                   : 8 bits
Scan type                   : Progressive
Bits/(Pixel*Frame)          : 0.556
Stream size                 : 17.7 GiB (81%)
Title                       : Морган / Morgan (2016) Remux 1080p [HDChina]
Language                    : English
Default                     : Yes
Forced                      : No

Audio #1
ID                          : 2
Format                      : AC-3
Format/Info                 : Audio Coding 3
Mode extension              : CM (complete main)
Format settings, Endianness : Big
Codec ID                    : A_AC3
Duration                    : 1 h 31 min
Bit rate mode               : Constant
Bit rate                    : 448 kb/s
Channel(s)                  : 6 channels
Channel positions           : Front: L C R, Side: L R, LFE
Sampling rate               : 48.0 kHz
Frame rate                  : 31.250 FPS (1536 spf)
Bit depth                   : 16 bits
Compression mode            : Lossy
Stream size                 : 294 MiB (1%)
Title                       : Dub [Blu-ray EUR] 5.1 448 Kbps
Language                    : Ukrainian
Default                     : Yes
Forced                      : Yes

Audio #2
ID                          : 3
Format                      :
Format/Info                 : Digital Theater Systems
Format profile              : MA / Core
Mode                        : 16
Format settings, Endianness : Big
Codec ID                    : A_DTS
Duration                    : 1 h 31 min
Bit rate mode               : Variable / Constant
Bit rate                    : 4 611 kb/s / 1 509 kb/s
Channel(s)                  : 8 channels / 6 channels
Channel positions           : Front: L C R, Side: L R, Back: L R, LFE / Front: L C R, Side: L R, LFE
Sampling rate               : 48.0 kHz
Frame rate                  : 93.750 FPS (512 spf)
Bit depth                   : 24 bits
Compression mode            : Lossless / Lossy
Stream size                 : 2.96 GiB (14%)
Title                       : Original, -HD MA 7.1 4611 Kbps
Language                    : English
Default                     : No
Forced                      : No

Audio #3
ID                          : 4
Format                      : AC-3
Format/Info                 : Audio Coding 3
Mode extension              : CM (complete main)
Format settings, Endianness : Big
Codec ID                    : A_AC3
Duration                    : 1 h 31 min
Bit rate mode               : Constant
Bit rate                    : 640 kb/s
Channel(s)                  : 6 channels
Channel positions           : Front: L C R, Side: L R, LFE
Sampling rate               : 48.0 kHz
Frame rate                  : 31.250 FPS (1536 spf)
Bit depth                   : 16 bits
Compression mode            : Lossy
Stream size                 : 421 MiB (2%)
Title                       : Original, 5.1 640 Kbps
Language                    : English
Default                     : No
Forced                      : No

Audio #4
ID                          : 5
Format                      : AC-3
Format/Info                 : Audio Coding 3
Mode extension              : CM (complete main)
Format settings, Endianness : Big
Codec ID                    : A_AC3
Duration                    : 1 h 31 min
Bit rate mode               : Constant
Bit rate                    : 448 kb/s
Channel(s)                  : 6 channels
Channel positions           : Front: L C R, Side: L R, LFE
Sampling rate               : 48.0 kHz
Frame rate                  : 31.250 FPS (1536 spf)
Bit depth                   : 16 bits
Compression mode            : Lossy
Stream size                 : 294 MiB (1%)
Title                       : Descriptive, 5.1 448 Kbps
Language                    : English
Default                     : No
Forced                      : No

Audio #5
ID                          : 6
Format                      : AC-3
Format/Info                 : Audio Coding 3
Mode extension              : CM (complete main)
Format settings, Endianness : Big
Codec ID                    : A_AC3
Duration                    : 1 h 31 min
Bit rate mode               : Constant
Bit rate                    : 224 kb/s
Channel(s)                  : 2 channels
Channel positions           : Front: L R
Sampling rate               : 48.0 kHz
Frame rate                  : 31.250 FPS (1536 spf)
Bit depth                   : 16 bits
Compression mode            : Lossy
Stream size                 : 147 MiB (1%)
Title                       : Commentary by director Luke Scott, 2.0 224 Kbps
Language                    : English
Default                     : No
Forced                      : No

Text #1
ID                          : 7
Format                      : PGS
Muxing mode                 : zlib
Codec ID                    : S_HDMV/PGS
Codec ID/Info               : Picture based subtitle format used on BDs/HD-DVDs
Duration                    : 1 h 29 min
Bit rate                    : 461 b/s
Count of elements           : 54
Stream size                 : 304 KiB (0%)
Title                       : Ukr Forced
Language                    : Ukrainian
Default                     : Yes
Forced                      : Yes

Text #2
ID                          : 8
Format                      : PGS
Muxing mode                 : zlib
Codec ID                    : S_HDMV/PGS
Codec ID/Info               : Picture based subtitle format used on BDs/HD-DVDs
Duration                    : 1 h 30 min
Bit rate                    : 18.0 kb/s
Count of elements           : 2206
Stream size                 : 11.7 MiB (0%)
Title                       : Ukr Full
Language                    : Ukrainian
Default                     : No
Forced                      : No

Text #3
ID                          : 9
Format                      : PGS
Muxing mode                 : zlib
Codec ID                    : S_HDMV/PGS
Codec ID/Info               : Picture based subtitle format used on BDs/HD-DVDs
Duration                    : 1 h 28 min
Bit rate                    : 16.2 kb/s
Count of elements           : 2770
Stream size                 : 10.2 MiB (0%)
Title                       : Eng Full
Language                    : English
Default                     : No
Forced                      : No

Text #4
ID                          : 10
Format                      : PGS
Muxing mode                 : zlib
Codec ID                    : S_HDMV/PGS
Codec ID/Info               : Picture based subtitle format used on BDs/HD-DVDs
Duration                    : 1 h 27 min
Bit rate                    : 26.2 kb/s
Count of elements           : 3164
Stream size                 : 16.4 MiB (0%)
Title                       : Eng for commentary Luke Scott
Language                    : English
Default                     : No
Forced                      : No

Text #5
ID                          : 11
Format                      : PGS
Muxing mode                 : zlib
Codec ID                    : S_HDMV/PGS
Codec ID/Info               : Picture based subtitle format used on BDs/HD-DVDs
Duration                    : 42 min 54 s
Bit rate                    : 218 b/s
Count of elements           : 28
Stream size                 : 68.8 KiB (0%)
Title                       : Eng Forced
Language                    : English
Default                     : No
Forced                      : No

Menu
00:00:00.000                : en:00:00:00.000
00:03:43.097                : en:00:03:43.097
00:07:22.399                : en:00:07:22.399
00:11:41.783                : en:00:11:41.783
00:16:04.337                : en:00:16:04.337
00:20:30.269                : en:00:20:30.269
00:25:36.326                : en:00:25:36.326
00:28:45.515                : en:00:28:45.515
00:34:20.266                : en:00:34:20.266
00:37:17.860                : en:00:37:17.860
00:40:46.110                : en:00:40:46.110
00:43:47.123                : en:00:43:47.123
00:48:14.224                : en:00:48:14.224
00:51:28.751                : en:00:51:28.751
00:54:45.990                : en:00:54:45.990
00:59:51.045                : en:00:59:51.045
01:03:44.402                : en:01:03:44.402
01:08:01.619                : en:01:08:01.619
01:11:43.756                : en:01:11:43.756
01:13:46.421                : en:01:13:46.421
01:17:03.702                : en:01:17:03.702
01:20:01.671                : en:01:20:01.671
01:22:32.529                : en:01:22:32.529
01:25:10.939                : en:01:25:10.939


Джерело: &


Золотий реліз (завантажене не впливає на рейтинг)
 Трекер:    Зареєстрований   

Завантажити / скачати фільм українською



відео для новачків



 Зареєстрований:   2017-01-13 20:27
 Розмір:   21.86 GB 
 Оцінка фільму:   5.8/10 (Голосів: 24)
   
Інші релізи
   Морган / Morgan (2016) 1080p Ukr/Eng | Sub Ukr/Eng sergiyko.5  1 / 0   10.58 GB   2017-01-14 11:24 
   Морган / Morgan (2016) Ukr/Eng | Sub Ukr/Eng igor911  2 / 0   1.75 GB   2017-01-13 23:41 
   Морган / Morgan (2016) AVC Ukr/Eng | Sub Ukr/Eng igor911  3 / 0   1.7 GB   2017-01-13 19:30 
   Морган / Morgan (2016) 720p Ukr/Eng | Sub Ukr/Eng 11FrYkT  2 / 0   4.23 GB   2017-01-13 19:14 
Anonymous 







2017-01-13 20:31  
Реліз оновлено!
Замінено українську доріжку 2.0 з на 5.1 з

famous37 
Відео Гуртом - фільмокрай
Відео Гуртом - фільмокрай


З нами з: 16.11.08
Востаннє: 20.05.19
Повідомлень: 958

2017-01-23 00:41  
Хороший треш)
Uberwinder 
VIP


З нами з: 18.11.16
Востаннє: 21.05.19
Повідомлень: 277

2017-03-11 08:50  
Згоден, треш відвертий, але до кінця додивитись таки спромігся, чимось стрічка зачепила...
Anonymous 







2017-05-07 13:11  
demetrius52, завантажуй зображення на img.hurtom.com
demetrius52 
VIP


З нами з: 02.04.17
Востаннє: 21.05.19
Повідомлень: 267

2017-05-07 13:22  
Ваш часовий пояс: GMT + 2 Години

Нова тема   Відповісти