Старша Школа Відео Ігор (Сезон 1) / Video Game High School (Season 1) (2012) 1080р Ukr/Eng

Нові коментарі

Нова тема   Відповісти
Автор Повідомлення
Anonymous 







2016-12-05 01:32  
Старша Школа Відео Ігор (Сезон 1) / Video Game High School (Season 1) (2012) 1080р Ukr/Eng

Старша Школа Відео Ігор (Сезон 1) / Video Game High School (Season 1) (2012) 1080р Ukr/Eng


Жанр: бойовик
Країна: США



Кінокомпанія: Rocket jump
Режисер: Matthew Arnold. Brandon Laatsch. Freddie Wong
Актори: Джош Блейлук (Браян). Джоханна Бренді (Джені). Джимі Вонг (Тед). Елері Портерфіелд (Рі Сван)

Сюжет:
Ви не вивчатимете фізику, ви вивчатимете фізику ігрового рушія. Ви не вивчатимете мистецтво, ви вивчатимете мистецтво війни. Ви вивчатимете біологію, купаючись у крові своїх ворогів! Звучить спокусливо?
Ласкаво просимо до Старшої Школи Відео Ігор!


Тривалість: 1 серія: 11:54 (цілком серій: 9)
Перелік серій
1. Shot Heard Round the World
2. Welcome to Me
3. When You Know the Pit...
4. Any Game in the House
5. And Then... The Law
6. Carpe Diem
7. Sign Up to Sign Out
8. Locked in the System
9. It's All About the Game
Якість:
Відео:
кодек:
розмір кадру: 1920 х 1080
бітрейт: ~4000 кб/с

Аудіо # 1:
мова: українська
переклад: багатоголосий закадровий
кодек: 2.0
бітрейт: ~128 кб/с

Аудіо # 2:
мова: англійська
переклад: оригінал
кодек: 2.0
бітрейт: ~128 кб/с

Джерело озвучення:


Субтитри:
мова: українська (форсовані)
тип: програмні (м'які)
формат: *.

Переклад: Всеволод Метельський
Озвучено студією BaibaKo.TV на замовлення порталу PlayUA.in.ua
Текст читали: Олекса Мельник, Андрій Корзаченко, Світлана Доманова, Anna_Smile
Info
General
Unique ID : 246610700288602302936219481366813753958 (0xB9877E4445092BF79291407928204266)
Complete name : F:\Downloads\Нова папка\VGHS.s01e05.WEBRip1080i.Ukr.Eng.BaibaKo.tv.to.PlayUa.
Format :
Format version : Version 4 / Version 2
File size : 410 MiB
Duration : 12 min 47 s
Overall bit rate : 4 480 kb/s
Encoded date : UTC 2016-04-10 22:15:12
Writing application : v7.8.0 ('River Man') 64bit built on Mar 27 2015 16:31:37
Writing library : libebml v1.3.1 + v1.4.2

Video
ID : 1
Format : AVC
Format/Info : Advanced Video Codec
Format profile : [email protected]
Format settings, CABAC : Yes
Format settings, ReFrames : 1 frame
Codec ID : V_MPEG4/ISO/AVC
Duration : 12 min 47 s
Bit rate : 4 216 kb/s
Width : 1 920 pixels
Height : 1 080 pixels
Display aspect ratio : 16:9
Frame rate mode : Constant
Frame rate : 23.976 (24000/1001) FPS
Color space : YUV
Chroma subsampling : 4:2:0
Bit depth : 8 bits
Scan type : Progressive
Bits/(Pixel*Frame) : 0.085
Stream size : 386 MiB (94%)
Language : English
Default : Yes
Forced : No

Audio #1
ID : 2
Format :
Format/Info : Advanced Audio Codec
Format profile : LC
Codec ID : A_AAC
Duration : 12 min 46 s
Bit rate : 110 kb/s
Channel(s) : 2 channels
Channel positions : Front: L R
Sampling rate : 44.1 kHz
Frame rate : 43.066 FPS (1024 spf)
Compression mode : Lossy
Stream size : 10.0 MiB (2%)
Language : Ukrainian
Default : Yes
Forced : Yes

Audio #2
ID : 3
Format :
Format/Info : Advanced Audio Codec
Format profile : LC
Codec ID : A_AAC
Duration : 12 min 47 s
Bit rate : 152 kb/s
Channel(s) : 2 channels
Channel positions : Front: L R
Sampling rate : 44.1 kHz
Frame rate : 43.066 FPS (1024 spf)
Compression mode : Lossy
Stream size : 13.9 MiB (3%)
Language : English
Default : No
Forced : No

Text
ID : 4
Format :
Codec ID : S_TEXT/
Codec ID/Info : Advanced Sub Station Alpha
Duration : 6 min 24 s
Bit rate : 10 b/s
Count of elements : 5
Compression mode : Lossless
Stream size : 506 Bytes (0%)
Title : forsed
Language : Ukrainian
Default : Yes
Forced : Yes
Скріншоти






Джерело:
Особиста оцінка: 0 - не дивився


Авторський реліз (завантажувати можна без реєстрації)
 Трекер:    Зареєстрований   

Завантажити / скачати серіал українською



відео для новачків



 Зареєстрований:   2016-12-05 22:01
 Розмір:   3.85 GB 
 Оцінка серіалу:   2.5/10 (Голосів: 12)
   
bot 
робот


З нами з: 30.09.07
Востаннє: 26.05.05
Повідомлень: 26420

2016-12-05 01:33  
Тему перенесено з Серіали в HD до форуму Анонси релізів


NeetScrool

Lil`Antoni 
VIP


З нами з: 25.02.12
Востаннє: 29.11.20
Повідомлень: 857

2016-12-05 13:04  
Дивився , як тільки вийшов цей серіал, цікаво було глянути,і сюжет доволі такий нічого, шкода що закрили його, я так і завешення сюжету не побачив (
Patriot_ukr 
VIP


З нами з: 06.04.15
Востаннє: 20.11.20
Повідомлень: 2258

2016-12-05 13:44  
Чиє озвучення? Якщо BaibaKo.tv на замовлення PlayUA, то вкажіть це.
bot 
робот


З нами з: 30.09.07
Востаннє: 26.05.05
Повідомлень: 26420

2016-12-05 21:34  
Тему перенесено з Анонси релізів до форуму Серіали в HD


NeetScrool

Neytreenor 
Відео Гуртом - запис з ТБ
Відео Гуртом - запис з ТБ


З нами з: 03.04.11
Востаннє: 01.12.20
Повідомлень: 2907

2016-12-05 21:46  
NeetScrool
Чому в релізі і назві теки написано 1080p, а в назвах файлів написано 1080i?

Anonymous 







2016-12-05 22:01  
Neytreenor
механічка помилка.
А чому у файлах i - це запитайте у релізера з Ексу. Я файлів не перейменовував.

Додано через 6 хвилин 39 секунд:

Перейменовано папку.

Patriot_ukr 
VIP


З нами з: 06.04.15
Востаннє: 20.11.20
Повідомлень: 2258

2016-12-06 14:44  
NeetScrool написано:
українська (форсовані)

Це, напевно, до субтитрів, а не до озвучки.

Ваш часовий пояс: GMT + 2 Години

Нова тема   Відповісти