Невдахи / La Chèvre (1981) 1080p 2хUkr/Fre

Нові коментарі

Нова тема   Відповісти
Автор Повідомлення
staf777 
Попереджень: 1
Попереджень: 1 


З нами з: 16.11.16
Востаннє: 16.10.18
Повідомлень: 1632

2016-12-04 22:24  
Невдахи / La Chèvre (1981) 1080p 2хUkr/Fre

Невдахи / La Chèvre (1981) 1080p 2хUkr/Fre


Жанр: комедія, пригодницький
Країна: Франція, Мексика



Кінокомпанія: Conacite Uno, Fideline Films, Gaumont International
Режисер: Франсіс Вебер
Актори: П'єр Рішар, Жерар Депардьє, Педро Армендарис мол., Корінн Шарбі, Маріца Оліварес, Андре Валарді, Хорхе Люк та інші.

Сюжет:
Блискуча французька комедія з П'єром Рішаром і Жераром Депардьє. Президент компанії наймає детектива, щоб розшукати його дочку, зниклу під час подорожі по Мексиці. Йому на допомогу він дає свого співробітника, таку ж людини-катастрофу, як і вона, думаючи що це допоможе швидше напасти на слід. У пошуках дівчини невдахи переживають масу запаморочливо смішних пригод.


Тривалість: 01:29:47
Якість: 1080p
Відео:
кодек:
розмір кадру: 1792x1080
бітрейт: 17500 кб/с

Аудіо # 1:
мова: українська
переклад: двоголосий закадровий
кодек: 2.0
бітрейт: 192 кб/с

Аудіо # 2:
мова: українська
переклад: багатоголосий закадровий
кодек: 2.0
бітрейт: 192 кб/с

Аудіо # 3:
мова: французька
переклад: оригінал
кодек:
бітрейт: 272 кб/с

Аудіо # 4:
мова: французька
переклад: коментарі
кодек: 2.0
бітрейт: 62 кб/с
Info
General
Unique ID : 186680775263599193543044757643646182983 (0x8C7168D5C9F213CB8FEB6F01AD3FA647)
Complete name : K:\Фільми в HD\Комедія\La Chèvre (1981) 1080p [2хUkr Fre][Toloka] .
Format :
Format version : Version 4 / Version 2
File size : 11.9 GiB
Duration : 1h 33mn
Overall bit rate mode : Variable
Overall bit rate : 18.2 Mbps
Movie name : La Chèvre (1981) 1080p [2хUkr Fre][Toloka] .
Encoded date : UTC 2016-12-05 07:37:12
Writing application : v9.5.0 ('Quiet Fire') 64bit
Writing library : libebml v1.3.4 + v1.4.5
Attachements : cover.jpg

Video
ID : 1
Format : AVC
Format/Info : Advanced Video Codec
Format profile : [email protected]
Format settings, CABAC : Yes
Format settings, ReFrames : 4 frames
Codec ID : V_MPEG4/ISO/AVC
Duration : 1h 33mn
Bit rate : 17.5 Mbps
Width : 1 792 pixels
Height : 1 080 pixels
Display aspect ratio : 5:3
Frame rate mode : Constant
Frame rate : 24.000 fps
Color space : YUV
Chroma subsampling : 4:2:0
Bit depth : 8 bits
Scan type : Progressive
Bits/(Pixel*Frame) : 0.377
Stream size : 11.4 GiB (96%)
Title : La Chèvre (1981) 1080p [2хUkr Fre][Toloka] .
Writing library : core 148 r2705+54 9f484c1 t_mod_Custom [[email protected] X86_64]
Encoding settings : cabac=1 / ref=4 / deblock=1:-2:-2 / analyse=0x3:0x133 / me=umh / subme=10 / psy=1 / fade_compensate=0.00 / psy_rd=1.05:0.05 / mixed_ref=1 / me_range=32 / chroma_me=1 / trellis=2 / 8x8dct=1 / cqm=0 / deadzone=21,11 / fast_pskip=1 / chroma_qp_offset=-3 / threads=6 / lookahead_threads=1 / sliced_threads=0 / nr=0 / decimate=1 / interlaced=0 / bluray_compat=0 / constrained_intra=0 / fgo=0 / bframes=10 / b_pyramid=2 / b_adapt=2 / b_bias=0 / direct=3 / weightb=1 / open_gop=0 / weightp=2 / keyint=250 / keyint_min=23 / scenecut=40 / intra_refresh=0 / rc=2pass / mbtree=0 / bitrate=17500 / ratetol=1.0 / qcomp=0.65 / qpmin=0:0:0 / qpmax=69:69:69 / qpstep=4 / cplxblur=20.0 / qblur=0.5 / ip_ratio=1.30 / pb_ratio=1.20 / aq=1:0.65 / aq-sensitivity=10.00 / aq-factor=1.00:1.00:1.00 / aq2=0 / aq3=0
Language : English
Default : Yes
Forced : No
Color range : Limited
Matrix coefficients : BT.709

Audio #1
ID : 2
Format : AC-3
Format/Info : Audio Coding 3
Mode extension : CM (complete main)
Format settings, Endianness : Big
Codec ID : A_AC3
Duration : 1h 33mn
Bit rate mode : Constant
Bit rate : 192 Kbps
Channel(s) : 2 channels
Channel positions : Front: L R
Sampling rate : 48.0 KHz
Frame rate : 31.250 fps (1536 spf)
Compression mode : Lossy
Stream size : 128 MiB (1%)
Title : [DVO-UA]"2+2"
Language : Ukrainian
Default : No
Forced : No

Audio #2
ID : 3
Format : AC-3
Format/Info : Audio Coding 3
Mode extension : CM (complete main)
Format settings, Endianness : Big
Codec ID : A_AC3
Duration : 1h 33mn
Bit rate mode : Constant
Bit rate : 192 Kbps
Channel(s) : 2 channels
Channel positions : Front: L R
Sampling rate : 48.0 KHz
Frame rate : 31.250 fps (1536 spf)
Compression mode : Lossy
Stream size : 128 MiB (1%)
Title : [MVO-UA] "K1"
Language : Ukrainian
Default : Yes
Forced : Yes

Audio #3
ID : 4
Format :
Format/Info : Free Lossless Audio Codec
Codec ID : A_FLAC
Duration : 1h 33mn
Bit rate mode : Variable
Bit rate : 272 Kbps
Channel(s) : 2 channels
Channel positions : Front: L R
Sampling rate : 48.0 KHz
Frame rate : 11.719 fps (4096 spf)
Bit depth : 16 bits
Stream size : 182 MiB (1%)
Title : [Original]
Writing library : libFLAC 1.2.1 (UTC 2007-09-17)
Language : French
Default : No
Forced : No

Audio #4
ID : 5
Format :
Format/Info : Advanced Audio Codec
Format profile : LC
Codec ID : A_AAC
Duration : 1h 33mn
Bit rate : 61.4 Kbps
Channel(s) : 2 channels
Channel positions : Front: L R
Sampling rate : 48.0 KHz
Frame rate : 46.875 fps (1024 spf)
Compression mode : Lossy
Delay relative to video : 9ms
Stream size : 41.1 MiB (0%)
Title : commentary
Language : French
Default : No
Forced : No
Скріншоти





Джерело: &
Особиста оцінка: 10 - без зайвих вагань рекомендую всім!


Срібний реліз (на рейтинг впливає 50% завантаженого)
 Трекер:    Зареєстрований   

Завантажити / скачати фільм українською



відео для новачків



 Зареєстрований:   2016-12-05 11:41
 Розмір:   11.91 GB 
 Оцінка фільму:   7.6/10 (Голосів: 5)
   
Інші релізи
   Невдахи / La Chèvre (1981) 2хUkr/Fre sokeel  2 / 0   1.58 GB   2017-08-13 15:57 
   Невдахи / La Chèvre (1981) 2xUkr/Fra |Sub Fra _oles  1 / 1   1.86 GB   2012-12-13 14:46 
   Невдахи / La Chèvre (1981) HDTV 720p Ukr/Fre ratbol  1 / 0   7.6 GB   2012-11-24 11:18 
boroznaya 
Попереджень: 1
Попереджень: 1 


З нами з: 02.11.12
Востаннє: 16.10.18
Повідомлень: 2967

2017-07-07 10:39  
Панове! Можливо, хтось має бажання та час на виконання релізу в avi на 1.45 Гб? Було б добре мати в колекції саме реліз з нового Blu-ray видання! Спасибі!
sokeel 
VIP


З нами з: 26.06.10
Востаннє: 16.10.18
Повідомлень: 379

2017-08-13 16:07  
Ваш часовий пояс: GMT + 2 Години

Нова тема   Відповісти