VA - Зимові мелодії. Колядки, щедрівки та новорічні пісні (2008) [FLAC] | Folk

Нові коментарі

Нова тема   Відповісти
Автор Повідомлення
kurmunke 
Свій


З нами з: 06.11.13
Востаннє: 20.08.17
Повідомлень: 68

2016-12-04 19:28  
VA - Зимові мелодії. Колядки, щедрівки та новорічні пісні (2008) [FLAC] | Folk

VA - Зимові мелодії. Колядки, щедрівки та новорічні пісні (2008) [FLAC] | Folk


Стиль: Folk
Країна, місто: Україна
Видавець: COMP MUSIC Ltd
Виконавці:
Великий дитячий хор Українського радіо, фольклорний ансамбль "Криниця", державний заслужений академічний Український народний хор ім. Г. Верьовка, молодша група Великого дитячого хору Українського радіо, вокально-інструментальний ансамбль "Кобза", тріо "Либідь", хоровий ансамбль "Відродження", дует бандуристок: Тетяна Нерезенко та Світлана Мирвода, Любов Клопотові, Василь Гекер, державна заслужена академічна хорова капела України "Думка", вокальне тріо Українського радіо: Алла Шутько, Світлана Петрова, Антоніна Мамченко, чоловіча хорова капела ім. Ревуцького, Надія Зяблюк, Леопольд Ященко, ансамбль пісні й танцю "Козаки Поділля"
Пісні:
    01. Щедрик - Великий дитячий хор Українського радіо під керуванням Тетяни Копилової
    02. Щедрий вечір, добрий вечір - Фольклорний ансамбль "Криниця"
    03. Сієм, сієм, посіваєм - Державний заслужений академічний Український народний хор ім. Г. Верьовка
    04. Щедрик-ведрик - Великий дитячий хор Українського радіо під керуванням Тетяни Копилової
    05. Зимонька - Молодша група Великого дитячого хору Українського радіо під керуванням О. Барановської
    06. Добрий вечір тобі - Вокально-інструментальний ансамбль "Кобза" під керуванням Євгена Коваленка
    07. Діва сина породила - Тріо "Либідь"(Лідія Михайленко, Наталія Ятченко, Тамара Ткач)
    08. Ой, лелія, лелія - Молодша група Великого дитячого хору Українського радіо під керуванням О. Барановської
    09. Ангели в небі - Хоровий ансамбль "Відродження" під керуванням Мстислава Юрченка
    10. В Віфліємі днесь Марія - Дует бандуристок: Тетяна Нерезенко, Світлана Мирвода
    11. Ти, дівчино красна - Любов Клопотові, Василь Гекер, інструментальний ансамбль під керування Дмитра Попічука
    12. Бог предвічний народився - Державна заслужена академічна хорова капела України 'Думка' під керуванням В. Петриченко
    13. Ой, дивна, дивна - Вокальне тріо Українського радіо: Алла Шутько, Світлана Петрова, Антоніна Мамченко
    14. Возвеселімося всі разом - Чоловіча хорова капела ім. Ревуцького під керуванням Богдана Антківа
    15. Жала Марійка шовкову траву - Надія Зяблюк, Леопольд Ященко
    16. Наша Маланка - Тріо бандуристок: Алла Шутько, Світлана Петрова, Антоніна Мамченко
    17. Подільські новорічні ігри - Ансамбль пісні й танцю "Козаки Поділля" під керуванням Миколи Балеми

Тривалість: 00:43:39
Мова: українська
Аудіо-кодек: FLAC
Бітрейт: 722 кб/с
Джерело: Власний CD
Додаткова інформація:
Чудова збірка колядок, щедрівок та новорічних пісень для створення хорошого настрою та новорічного духу й затишку в оселі Happy
.log

Exact Audio Copy V1.3 from 2. September 2016

EAC extraction logfile from 20. November 2016, 18:15

- / Зимові мелодії

Used drive : TSSTcorpCDDVDW SH-222AB Adapter: 1 ID: 0

Read mode : Secure
Utilize accurate stream : Yes
Defeat audio cache : No
Make use of C2 pointers : Yes

Read offset correction : 6
Overread into Lead-In and Lead-Out : No
Fill up missing offset samples with silence : Yes
Delete leading and trailing silent blocks : No
Null samples used in CRC calculations : Yes
Used interface : Native Win32 interface for Win NT & 2000

Used output format : User Defined Encoder
Selected bitrate : 1024 kBit/s
Quality : High
Add ID3 tag : No
Command line compressor : C:\Program Files (x86)\Exact Audio Copy1.3\FLAC\FLAC.EXE
Additional command line options : -6 -V -T "ARTIST=%artist%" -T "TITLE=%title%" -T "ALBUM=%albumtitle%" -T "DATE=%year%" -T "TRACKNUMBER=%tracknr%" -T "GENRE=%genre%" -T "COMMENT=%comment%" -T "BAND=%albuminterpret%" -T "ALBUMARTIST=%albuminterpret%" -T "COMPOSER=%composer%" %haslyrics%--tag-from-file=LYRICS="%lyricsfile%"%haslyrics% -T "DISCNUMBER=%cdnumber%" -T "TOTALDISCS=%totalcds%" -T "TOTALTRACKS=%numtracks%" %hascover%--picture="%coverfile%"%hascover% %source% -o %dest%

TOC of the extracted CD

Track | Start | Length | Start sector | End sector
---------------------------------------------------------
1 | 0:00.00 | 1:39.67 | 0 | 7491
2 | 1:39.67 | 1:18.64 | 7492 | 13405
3 | 2:58.56 | 1:48.49 | 13406 | 21554
4 | 4:47.30 | 2:33.49 | 21555 | 33078
5 | 7:21.04 | 1:23.71 | 33079 | 39374
6 | 8:45.00 | 1:25.01 | 39375 | 45750
7 | 10:10.01 | 2:37.60 | 45751 | 57585
8 | 12:47.61 | 2:15.07 | 57586 | 67717
9 | 15:02.68 | 3:31.36 | 67718 | 83578
10 | 18:34.29 | 3:17.65 | 83579 | 98418
11 | 21:52.19 | 2:48.66 | 98419 | 111084
12 | 24:41.10 | 2:55.72 | 111085 | 124281
13 | 27:37.07 | 2:16.51 | 124282 | 134532
14 | 29:53.58 | 2:02.64 | 134533 | 143746
15 | 31:56.47 | 1:48.32 | 143747 | 151878
16 | 33:45.04 | 2:02.35 | 151879 | 161063
17 | 35:47.39 | 7:51.55 | 161064 | 196443

Range status and errors

Selected range

Filename M:\Музика\Зимові мелодії.wav

Peak level 100.0 %
Extraction speed 20.3 X
Range quality 100.0 %
Test CRC 8930BB23
Copy CRC 8930BB23
Copy OK

No errors occurred

End of status report

---- CUETools DB Plugin V2.1.6

[CTDB TOCID: RqXqdaNBlN5oKTIQjAYed9OinNo-] found
Submit result: already submitted
Track | CTDB Status
1 | (1/1) Accurately ripped
2 | (1/1) Accurately ripped
3 | (1/1) Accurately ripped
4 | (1/1) Accurately ripped
5 | (1/1) Accurately ripped
6 | (1/1) Accurately ripped
7 | (1/1) Accurately ripped
8 | (1/1) Accurately ripped
9 | (1/1) Accurately ripped
10 | (1/1) Accurately ripped
11 | (1/1) Accurately ripped
12 | (1/1) Accurately ripped
13 | (1/1) Accurately ripped
14 | (1/1) Accurately ripped
15 | (1/1) Accurately ripped
16 | (1/1) Accurately ripped
17 | (1/1) Accurately ripped
Придбати CD диск можна тут. Підтримуйте українське гривнею!


Завантажити MP3 можна тут.


Якщо Ви справді бажаєте підтримати українське - після прослуховування, якщо музика вам сподобалась, придбайте ліцензійний диск. Підтримаймо вітчизняних виконавців!


Срібний реліз (на рейтинг впливає 50% завантаженого)
 Трекер:    Зареєстрований   

Завантажити / скачати українську музику



відео для новачків



 Зареєстрований:   2016-12-04 19:28
 Розмір:   231 MB 
 Оцінка музики:   10/10 (Голосів: 5)
   
Ваш часовий пояс: GMT + 2 Години

Нова тема   Відповісти