Олександр Пономарьов - Найкраще (2016) [FLAC] | Pop

Нові коментарі

Нова тема   Відповісти
Автор Повідомлення
kurmunke 
Свій


З нами з: 06.11.13
Востаннє: 16.09.17
Повідомлень: 70

2016-12-04 19:10  
Олександр Пономарьов - Найкраще (2016) [FLAC] | Pop

Олександр Пономарьов - Найкраще (2016) [FLAC] | Pop


Стиль: Pop
Країна, місто: Україна, Київ
Сайти: Офіційний сайт
Видавець: ТОВ "Квадро диск Україна"
Виконавці:
Олександр Пономарьов
Пісні:
    01. Пілігрим
    02. Серце
    03. Чомусь так гірко плакала вона
    04. А ти просто кохай
    05. Я не такий
    06. Ніченькою
    07. Ти дочекайся мене
    08. Любиш
    09. Три поради
    10. Ніколи
    11. Він чекає на неї
    12. Зіронька
    13. Сам собі країна
    14. Я люблю тільки тебе
    15. Заспіваймо пісню за Україну

Тривалість: 00:58:31
Мова: українська
Аудіо-кодек: FLAC
Бітрейт: 931 кб/с
Джерело: Власний CD
.log

Exact Audio Copy V1.3 from 2. September 2016

EAC extraction logfile from 20. November 2016, 16:23

Олександр Пономарьов / Найкраще

Used drive : TSSTcorpCDDVDW SH-222AB Adapter: 1 ID: 0

Read mode : Secure
Utilize accurate stream : Yes
Defeat audio cache : No
Make use of C2 pointers : Yes

Read offset correction : 6
Overread into Lead-In and Lead-Out : No
Fill up missing offset samples with silence : Yes
Delete leading and trailing silent blocks : No
Null samples used in CRC calculations : Yes
Used interface : Native Win32 interface for Win NT & 2000

Used output format : User Defined Encoder
Selected bitrate : 1024 kBit/s
Quality : High
Add ID3 tag : No
Command line compressor : C:\Program Files (x86)\Exact Audio Copy1.3\FLAC\FLAC.EXE
Additional command line options : -6 -V -T "ARTIST=%artist%" -T "TITLE=%title%" -T "ALBUM=%albumtitle%" -T "DATE=%year%" -T "TRACKNUMBER=%tracknr%" -T "GENRE=%genre%" -T "COMMENT=%comment%" -T "BAND=%albuminterpret%" -T "ALBUMARTIST=%albuminterpret%" -T "COMPOSER=%composer%" %haslyrics%--tag-from-file=LYRICS="%lyricsfile%"%haslyrics% -T "DISCNUMBER=%cdnumber%" -T "TOTALDISCS=%totalcds%" -T "TOTALTRACKS=%numtracks%" %hascover%--picture="%coverfile%"%hascover% %source% -o %dest%

TOC of the extracted CD

Track | Start | Length | Start sector | End sector
---------------------------------------------------------
1 | 0:00.00 | 3:06.45 | 0 | 13994
2 | 3:06.45 | 3:59.22 | 13995 | 31941
3 | 7:05.67 | 6:00.63 | 31942 | 59004
4 | 13:06.55 | 3:35.62 | 59005 | 75191
5 | 16:42.42 | 3:50.46 | 75192 | 92487
6 | 20:33.13 | 4:02.22 | 92488 | 110659
7 | 24:35.35 | 3:53.52 | 110660 | 128186
8 | 28:29.12 | 3:27.34 | 128187 | 143745
9 | 31:56.46 | 4:21.16 | 143746 | 163336
10 | 36:17.62 | 3:53.06 | 163337 | 180817
11 | 40:10.68 | 3:28.32 | 180818 | 196449
12 | 43:39.25 | 4:20.59 | 196450 | 216008
13 | 48:00.09 | 3:25.21 | 216009 | 231404
14 | 51:25.30 | 3:55.19 | 231405 | 249048
15 | 55:20.49 | 3:10.00 | 249049 | 263298

Range status and errors

Selected range

Filename M:\Музика\Олександр Пономарьов - Найкраще.wav

Peak level 100.0 %
Extraction speed 22.4 X
Range quality 100.0 %
Test CRC 061067CA
Copy CRC 061067CA
Copy OK

No errors occurred

End of status report

---- CUETools DB Plugin V2.1.6

[CTDB TOCID: eVjt2zOOHH095DnRiPuIwlMu4KY-] found
Submit result: already submitted
Track | CTDB Status
1 | (1/1) Accurately ripped
2 | (1/1) Accurately ripped
3 | (1/1) Accurately ripped
4 | (1/1) Accurately ripped
5 | (1/1) Accurately ripped
6 | (1/1) Accurately ripped
7 | (1/1) Accurately ripped
8 | (1/1) Accurately ripped
9 | (1/1) Accurately ripped
10 | (1/1) Accurately ripped
11 | (1/1) Accurately ripped
12 | (1/1) Accurately ripped
13 | (1/1) Accurately ripped
14 | (1/1) Accurately ripped
15 | (1/1) Accurately ripped
Придбати CD диск можна тут. Підтримуйте українське гривнею!


Завантажити MP3 можна тут.


Срібний реліз (на рейтинг впливає 50% завантаженого)
 Трекер:    Зареєстрований   

Завантажити / скачати українську музику



відео для новачків



 Зареєстрований:   2016-12-04 19:14
 Розмір:   392 MB 
 Оцінка музики:   10/10 (Голосів: 5)
   
Ваш часовий пояс: GMT + 2 Години

Нова тема   Відповісти