Проти шторму / The Finest Hours (2016) Remux 1080p Ukr/Eng | Sub Ukr/Eng

Нові коментарі

Нова тема   Відповісти
Останній раз роздавалося staf777 (2017-11-06)
Автор Повідомлення
staf777 
Відео Гуртом - підтримка та поширення
Відео Гуртом - підтримка та поширення


З нами з: 16.11.16
Востаннє: 06.11.17
Повідомлень: 522

2016-12-03 22:57  
Проти шторму / The Finest Hours (2016) Remux 1080p Ukr/Eng | Sub Ukr/Eng

Проти шторму / The Finest Hours (2016) Remux 1080p Ukr/Eng | Sub Ukr/Eng


Жанр: екшн, драма, історичний
Країна: США



Кінокомпанія: Bergsten Music, Walt Disney Pictures, Whitaker Entertainment
Режисер: Крейґ Ґіллеспі
Актори: Кріс Пайн, Кейсі Аффлек, Бен Фостер, Ерік Бана, Холлідей Грейнджер, Джон Ортіс, Кайл Галлнер, Джон Магаро, Грем МакТавіш, Майкл Реймонд-Джеймс

Сюжет:
Сюжет фільму заснований на реальних подіях, що відбулися в 1952 році, коли співробітники берегової охорони в самий розпал шторму, використовуючи дерев'яні човни, намагалися врятувати екіпаж двох нафтових танкерів.
Чи знаєте ви, що...
• Човен CG 36500, спущена на воду судном берегової охорони для порятунку екіпажу танкера «Пендлтон», до цих пір підтримується в ідеальному стані в Рок Харборі, Орлеан, штат Массачусетс.
• Поліцейський автомобіль старої моделі, використаний у фільмі, позичили у міської поліції Орлеана в штаті Массачусетс.
• У 2011 році Берегова охорона США назвала 46-метровий швидкісний катер нового проекту на честь старшини шлюпки CG 36500 Бернарда Веббера. Катери цього проекту стали першими судами, які називають на честь військовослужбовців рядового і сержантського складу.
• Зйомки фільму проходили в основному в місті Чатем, штат Массачусетс.
• Бен Фостер і Ерік Бана зіграли «морських котиків» у фільмі «Вцілілий» (2013), а Кайл Галлнер виконав роль морського піхотинця у фільмі «Снайпер» (2014).
• Кріс Пайн і Ерік Бана разом знялися у фільмі «Зоряний шлях» (2009).
• Кріс Пайн і Холлідей Грейнджер вже знімалися у фільмах студії «Disney», Пайн - у фільмі «Чим далі в ліс...» (2014) і «Щоденники принцеси 2: Як стати королевою» (2004), а Грейнджер - в «Попелюшку» (2015).
• Кейсі Аффлек і Джош Стюарт разом працювали у фільмі «Интерстеллар» (2014). Стюарт на екрані не з'являвся, але озвучував робота КЕЙС.
• Кайл Галлнер і Майкл Реймонд-Джеймс знімалися в популярному телесеріалі «Ходячі мерці» (2010) телеканалу «AMC», однак у різних сезонах. Галлнер виконував роль Зака в 4 сезоні, а Реймонд-Джеймс зіграв Дейва у 2 сезоні.
• Кейсі Аффлек і Бен Фостер разом працювали у фільмі «В бігах» (2013).
Тривалість: 01:57:18
Якість: Remux 1080p
Відео:
кодек:
розмір кадру: 1920x1080
бітрейт: 30.8 Мб/с

Аудіо # 1:
мова: українська
переклад: професійний дубльований
кодек: -HD MA 5.1
бітрейт: 4039 кб/с

Аудіо # 2:
мова: англійська
переклад: оригінал
кодек: -HD MA 7.1
бітрейт: 5340 кб/с

Субтитри:
мова: українська
тип: пререндерні
формат: PGS

Субтитри:
мова: англійська (SDH)
тип: пререндерні
формат: PGS
Info
General
Unique ID : 217199174700518470065651837993548459495 (0xA3670A191482F0798ED1D60378B32DE7)
Complete name : K:\Фільми в HD\Бойовик\The Finest Hours (2016) Remux 1080p [Ukr Eng] [Sub Uk rEng][TOLOKA].
Format :
Format version : Version 4 / Version 2
File size : 33.0 GiB
Duration : 1h 57mn
Overall bit rate mode : Variable
Overall bit rate : 40.2 Mbps
Movie name : The Finest Hours (2016) Remux 1080p Ukr/Eng | Sub Ukr/Eng
Encoded date : UTC 2016-12-06 16:45:01
Writing application : mkvmerge v9.5.0 ('Quiet Fire') 64bit
Writing library : libebml v1.3.4 + libmatroska v1.4.5
Attachements : cover.jpg.jpg

Video
ID : 1
Format : AVC
Format/Info : Advanced Video Codec
Format profile : [email protected]
Format settings, CABAC : Yes
Format settings, ReFrames : 4 frames
Codec ID : V_MPEG4/ISO/AVC
Duration : 1h 57mn
Bit rate mode : Variable
Bit rate : 30.8 Mbps
Maximum bit rate : 32.9 Mbps
Width : 1 920 pixels
Height : 1 080 pixels
Display aspect ratio : 16:9
Frame rate mode : Constant
Frame rate : 23.976 (24000/1001) fps
Color space : YUV
Chroma subsampling : 4:2:0
Bit depth : 8 bits
Scan type : Progressive
Bits/(Pixel*Frame) : 0.620
Stream size : 25.3 GiB (77%)
Title : The Finest Hours (2016) Remux 1080p Ukr/Eng | Sub Ukr/Eng
Default : Yes
Forced : No

Audio #1
ID : 2
Format :
Format/Info : Digital Theater Systems
Format profile : MA / Core
Mode : 16
Format settings, Endianness : Big
Codec ID : A_DTS
Duration : 1h 57mn
Bit rate mode : Variable / Constant
Bit rate : 4 039 Kbps / 1 509 Kbps
Channel(s) : 6 channels
Channel positions : Front: L C R, Side: L R, LFE
Sampling rate : 48.0 KHz
Frame rate : 93.750 fps (512 spf)
Bit depth : 24 bits
Compression mode : Lossless / Lossy
Delay relative to video : 21ms
Stream size : 3.31 GiB (10%)
Title : -HD MA 5.1,~4039 kbps[UA-DUB]
Language : Ukrainian
Default : Yes
Forced : Yes

Audio #2
ID : 3
Format :
Format/Info : Digital Theater Systems
Format profile : MA / Core
Mode : 16
Format settings, Endianness : Big
Codec ID : A_DTS
Duration : 1h 57mn
Bit rate mode : Variable / Constant
Bit rate : 5 340 Kbps / 1 509 Kbps
Channel(s) : 8 channels / 6 channels
Channel positions : Front: L C R, Side: L R, Back: L R, LFE / Front: L C R, Side: L R, LFE
Sampling rate : 48.0 KHz
Frame rate : 93.750 fps (512 spf)
Bit depth : 24 bits
Compression mode : Lossless / Lossy
Stream size : 4.38 GiB (13%)
Title : -HD MA 7.1,~5340 [ORIGINAL]
Default : No
Forced : No

Text #1
ID : 4
Format : PGS
Muxing mode : zlib
Codec ID : S_HDMV/PGS
Codec ID/Info : Picture based subtitle format used on BDs/HD-DVDs
Duration : 1h 49mn
Bit rate : 17.5 Kbps
Count of elements : 2334
Stream size : 13.6 MiB (0%)
Title : [UA-SUB]
Default : Yes
Forced : No

Text #2
ID : 5
Format : PGS
Muxing mode : zlib
Codec ID : S_HDMV/PGS
Codec ID/Info : Picture based subtitle format used on BDs/HD-DVDs
Duration : 1h 47mn
Bit rate : 9 151 bps
Count of elements : 2304
Stream size : 7.07 MiB (0%)
Title : [SUB-ENG]
Default : No
Forced : No
Скріншоти





Джерело:
Особиста оцінка: 10 - без зайвих вагань рекомендую всім!


Золотий реліз (завантажене не впливає на рейтинг)
 Трекер:    Зареєстрований   

Завантажити / скачати фільм українською



відео для новачків



 Зареєстрований:   2016-12-06 20:34
 Розмір:   32.98 GB 
 Оцінка фільму:   9/10 (Голосів: 9)
   
Інші релізи
   Проти шторму / The Finest Hours (2016) 1080p 3D [Half OverUnder] Ukr/Eng | Sub Ukr/Eng -VipeR-  1 / 0   10.78 GB   2016-08-22 12:33 
   Проти шторму / The Finest Hours (2016) 720p Ukr/Eng | Sub Ukr/Eng 11FrYkT  6 / 0   7.46 GB   2016-07-26 17:58 
   Проти шторму / The Finest Hours (2016) 1080p Ukr/Eng | Sub Ukr/Eng 11FrYkT  6 / 0   15.95 GB   2016-07-26 17:56 
   Проти шторму / The Finest Hours (2016) Gelios  21 / 0   1.45 GB   2016-07-26 17:53 
   Проти шторму / The Finest Hours (2016) [MP4, 640x] apvAltisimo  1 / 0   748 MB   2016-06-08 14:20 
   Проти шторму / The Finest Hours (2016) AVC AngryBirdsUA  12 / 0   1.3 GB   2016-06-07 20:00 
Ваш часовий пояс: GMT + 2 Години

Нова тема   Відповісти