Замерзла з Маямі / New in Town (2009) 720p Ukr/Eng

Нові коментарі

Нова тема   Відповісти
Автор Повідомлення
staf777 
Попереджень: 1
Попереджень: 1 


З нами з: 16.11.16
Востаннє: 16.10.18
Повідомлень: 1632

2016-12-03 20:07  
Замерзла з Маямі / New in Town (2009) 720p Ukr/Eng


Жанр: комедія, мелодрама
Країна: США, Канада



Кінокомпанія: Gold Circle Films, Epidemic Pictures, Edmonds Entertainment, The Safran Company
Режисер: Йонас Елмер
Актори: Рене Зельвегер, Гаррі Коннік мол., Шаван Феллон, Джей Кей Сіммонс, Майк О'Брайен, Френсіс Конрой

Сюжет:
Доля закинула її трохи далі, ніж вона планувала. Люсі Гілл полюбляє вишукане вбрання та дорогі машини, їй до душі невпинне прагнення кар'єрного росту. Та якось, з рідного та сонячного Маямі її відправляють у відрядження в холодну Міннесоту, де вона має слідкувати за реструктуризацією місцевого заводу. Окрім снігової заметілі, морозу та зледенілих доріг не менш прохолодно зустрічають Люсі і місцеві мешканці. Минає багато часу та витрачається чимало нервів допоки дівчині вдається заслужити повагу мешканців містечка, розтопити власне серце і...зустріти чоловіка своєї мрії.


Тривалість: 01:36:48
Якість: 720p
Відео:
кодек:
розмір кадру:1280x720
бітрейт: 8245 кб/с

Аудіо # 1:
мова: українська & &
переклад: багатоголосий закадровий | студія Tretyakoff production
кодек: 2.0
бітрейт: 192 кб/с

Аудіо # 2:
мова: англійська
переклад: оригінал
кодек: 5.1
бітрейт: 1509 кб/с

Аудіо # 3:
мова: англійська
переклад: коментарі
кодек: 2.0
бітрейт: 224 кб/с
Info
Код:
General
Unique ID                      : 253555386936728263487617934726781707795 (0xBEC0FDC1004AD61B90E75D8BE9CFA613)
Complete name                  : K:\Фільми в HD\Комедія\New in Town (2009) 720p[staf777].
Format                         :
Format version                 : Version 4 / Version 2
File size                      : 6.88 GiB
Duration                       : 1h 36mn
Overall bit rate               : 10.2 Mbps
Movie name                     : New in Town (2009) 720p
Encoded date                   : UTC 2016-12-04 07:41:29
Writing application            : v9.5.0 ('Quiet Fire') 64bit
Writing library                : libebml v1.3.4 + v1.4.5
Attachements                   : cover.jpg

Video
ID                             : 1
Format                         : AVC
Format/Info                    : Advanced Video Codec
Format profile                 : [email protected]
Format settings, CABAC         : Yes
Format settings, ReFrames      : 8 frames
Codec ID                       : V_MPEG4/ISO/AVC
Duration                       : 1h 36mn
Bit rate                       : 8 245 Kbps
Width                          : 1 280 pixels
Height                         : 720 pixels
Display aspect ratio           : 16:9
Frame rate mode                : Constant
Frame rate                     : 23.976 (24000/1001) fps
Color space                    : YUV
Chroma subsampling             : 4:2:0
Bit depth                      : 8 bits
Scan type                      : Progressive
Bits/(Pixel*Frame)             : 0.373
Stream size                    : 5.58 GiB (81%)
Title                          : New in Town (2009) 720p
Writing library                : core 148 r2721 72d53ab
Encoding settings              : cabac=1 / ref=8 / deblock=1:-3:-3 / analyse=0x3:0x133 / me=umh / subme=10 / psy=1 / psy_rd=1.00:0.10 / mixed_ref=1 / me_range=48 / chroma_me=1 / trellis=2 / 8x8dct=1 / cqm=0 / deadzone=21,11 / fast_pskip=0 / chroma_qp_offset=-3 / threads=12 / lookahead_threads=2 / sliced_threads=0 / nr=0 / decimate=0 / interlaced=0 / bluray_compat=0 / constrained_intra=0 / bframes=8 / b_pyramid=2 / b_adapt=2 / b_bias=0 / direct=3 / weightb=1 / open_gop=0 / weightp=2 / keyint=240 / keyint_min=23 / scenecut=40 / intra_refresh=0 / rc_lookahead=120 / rc=crf / mbtree=0 / crf=16.0 / qcomp=0.65 / qpmin=0 / qpmax=69 / qpstep=4 / vbv_maxrate=62500 / vbv_bufsize=78125 / crf_max=0.0 / nal_hrd=none / filler=0 / ip_ratio=1.35 / pb_ratio=1.25 / aq=1:0.65
Language                       : English
Default                        : Yes
Forced                         : No
Color range                    : Limited
Color primaries                : BT.709
Transfer characteristics       : BT.709
Matrix coefficients            : BT.709

Audio #1
ID                             : 2
Format                         : AC-3
Format/Info                    : Audio Coding 3
Mode extension                 : CM (complete main)
Format settings, Endianness    : Big
Codec ID                       : A_AC3
Duration                       : 1h 36mn
Bit rate mode                  : Constant
Bit rate                       : 192 Kbps
Channel(s)                     : 2 channels
Channel positions              : Front: L R
Sampling rate                  : 48.0 KHz
Frame rate                     : 31.250 fps (1536 spf)
Compression mode               : Lossy
Stream size                    : 133 MiB (2%)
Title                          : 2.0 [UA-MVO-1+1]
Language                       : Ukrainian
Default                        : Yes
Forced                         : Yes

Audio #2
ID                             : 3
Format                         :
Format/Info                    : Digital Theater Systems
Mode                           : 16
Format settings, Endianness    : Big
Codec ID                       : A_DTS
Duration                       : 1h 36mn
Bit rate mode                  : Constant
Bit rate                       : 1 509 Kbps
Channel(s)                     : 6 channels
Channel positions              : Front: L C R, Side: L R, LFE
Sampling rate                  : 48.0 KHz
Frame rate                     : 93.750 fps (512 spf)
Bit depth                      : 24 bits
Compression mode               : Lossy
Stream size                    : 1.02 GiB (15%)
Title                          : English
Language                       : English
Default                        : No
Forced                         : No

Audio #3
ID                             : 4
Format                         : AC-3
Format/Info                    : Audio Coding 3
Format profile                 : Dolby Digital
Mode extension                 : CM (complete main)
Format settings, Endianness    : Big
Codec ID                       : A_AC3
Duration                       : 1h 36mn
Bit rate mode                  : Constant
Bit rate                       : 224 Kbps
Channel(s)                     : 2 channels
Channel positions              : Front: L R
Sampling rate                  : 48.0 KHz
Frame rate                     : 31.250 fps (1536 spf)
Compression mode               : Lossy
Stream size                    : 155 MiB (2%)
Title                          : Commentary
Language                       : English
Default                        : No
Forced                         : No
Скріншоти




Джерело: &
Автор доріжки taraskill1, звукозапис POMEO, постер - ТРЕМ.
Особиста оцінка: 0 - не дивився


 Трекер:    Зареєстрований   

Завантажити / скачати фільм українською



відео для новачків



 Зареєстрований:   2016-12-04 11:12
 Розмір:   6.88 GB 
 Оцінка фільму:   8.4/10 (Голосів: 10)
   
Інші релізи
   Замерзла з Маямі / New in Town (2009) AVC Ukr/Eng | Sub Eng staf777  16 / 0   2.4 GB   2018-09-03 15:19 
   Замерзла з Маямі / New in Town (2009) Ukr/Eng taraskill1  2 / 1   1.58 GB   2014-04-21 13:18 
casper101 
VIP


З нами з: 03.12.09
Востаннє: 17.10.18
Повідомлень: 319

2018-03-24 21:24  
легка комедія з Рене Зельвегер.
Ваш часовий пояс: GMT + 2 Години

Нова тема   Відповісти