Кеті / Katy the Caterpillar (1984) VHSRip

Нові коментарі

Нова тема   Відповісти
Автор Повідомлення
ZETMAN 
Новенький


З нами з: 09.03.13
Востаннє: 17.08.17
Повідомлень: 16

2016-12-03 19:35  
Кеті / Katy la oruga / Katy the Caterpillar (1984) VHSRip

Кеті / Katy the Caterpillar (1984) VHSRip


Жанр: анімація, пригодницький, сімейний
Країна: Іспанія, Мексика



Кінокомпанія: Televicine S.A. de C.V. Moro Creativos Asociados
Режисер: Хосе Луїс Моро / Сантьяго Моро
Ролі озвучують: Христина Камарго / Альфонсо Обрегон / Діана Сантос / Альваро Тарсис / Франциско Колменеро

Сюжет:
Цей мультфільм розповідає про пригоди маленької гусениці. На голові вона носила шапочку-квітка дзвіночок. А в кінці перетворилася в красуню метелика.


Тривалість: 01:21:30
Якість: VHSRip (Запис приблизно 1996 року)
Відео:
кодек:
розмір кадру: 640 х 480
бітрейт: 807 кб/с

Аудіо #1:
мова: українська
переклад: одноголосий закадровий (Надія Козленко)
кодек: 2.0
бітрейт: 160 кб/с

Аудіо #2:
мова: українська
переклад: одноголосий закадровий (Надія Козленко)
кодек:MP2
бітрейт: 224 кб/с

Джерело озвучення:


Джерело:перенесене з ex.ua
Особиста оцінка: 10 - без зайвих вагань рекомендую всім!
Звіт Media Info
General
Complete name : D:\ВИДЕО\Врятоване з EX.UA\Katy Caterpillar 1983 Ukr VHSRip.avi
Format : AVI
Format/Info : Audio Video Interleave
File size : 700 MiB
Duration : 1h 21mn
Overall bit rate : 1 201 Kbps
Writing application : VirtualDubMod 1.5.4.1 (build 2178/release)
Writing library : VirtualDubMod build 2178/release

Video
ID : 0
Format : MPEG-4 Visual
Format profile : Advanced [email protected]
Format settings, BVOP : Yes
Format settings, QPel : No
Format settings, GMC : No warppoints
Format settings, Matrix : Custom
Codec ID :
Codec ID/Hint :
Duration : 1h 21mn
Bit rate : 807 Kbps
Width : 640 pixels
Height : 480 pixels
Display aspect ratio : 4:3
Frame rate : 25.000 fps
Color space : YUV
Chroma subsampling : 4:2:0
Bit depth : 8 bits
Scan type : Progressive
Bits/(Pixel*Frame) : 0.105
Stream size : 471 MiB (67%)
Writing library : 1.2.1 (UTC 2008-12-04)

Audio #1
ID : 1
Format : AC-3
Format/Info : Audio Coding 3
Mode extension : CM (complete main)
Codec ID : 2000
Duration : 1h 21mn
Bit rate mode : Constant
Bit rate : 160 Kbps
Channel(s) : 2 channels
Channel positions : Front: L R
Sampling rate : 48.0 KHz
Bit depth : 16 bits
Stream size : 93.3 MiB (13%)
Alignment : Aligned on interleaves
Interleave, duration : 96 ms (2.40 video frames)
Interleave, preload duration : 96 ms
Language : Ukrainian

Audio #2
ID : 2
Format : MPEG Audio
Format version : Version 1
Format profile : Layer 2
Codec ID : 50
Duration : 1h 21mn
Bit rate mode : Constant
Bit rate : 224 Kbps
Channel(s) : 2 channels
Sampling rate : 48.0 KHz
Stream size : 131 MiB (19%)
Alignment : Aligned on interleaves
Interleave, duration : 80 ms (2.00 video frames)
Interleave, preload duration : 504 ms
Language : Ukrainian
Скріншоти





Срібний реліз (на рейтинг впливає 50% завантаженого)
 Трекер:    Зареєстрований   

Завантажити / скачати мультфільм українською



відео для новачків



 Зареєстрований:   2016-12-03 19:35
 Розмір:   700 MB 
 Оцінка мультфільму:   10/10 (Голосів: 5)
   
11FrYkT 
Модератор відео


З нами з: 20.02.11
Востаннє: 22.08.17
Повідомлень: 3810

2016-12-03 19:39  
ZETMAN написано:

Аудіо:
мова: українська
переклад: одноголосий закадровий (Надія Козленко)
бітрейт: 160кб/с

додайте кодек

ZETMAN 
Новенький


З нами з: 09.03.13
Востаннє: 17.08.17
Повідомлень: 16

2016-12-03 19:46  
11FrYkT написано:
додайте кодек

Додав!

Віктор 
Відео Гуртом - субтитрування
Відео Гуртом - субтитрування


З нами з: 09.01.10
Востаннє: 11.08.17
Повідомлень: 8686

2016-12-03 20:27  
Ориґінальна назва: Katy, la oruga До речі, на імдб рік 1984
leicheman 
Відео Гуртом - підтримка та поширення
Відео Гуртом - підтримка та поширення


З нами з: 03.07.14
Востаннє: 22.08.17
Повідомлень: 1053

2016-12-03 20:56  
Оце раритет
ZETMAN 
Новенький


З нами з: 09.03.13
Востаннє: 17.08.17
Повідомлень: 16

2016-12-03 20:59  
Віктор написано:
Ориґінальна назва: Katy, la oruga

Так, не заперечую, але тоді ICTV показав англійську версію.

Stepan2009 
VIP


З нами з: 18.09.10
Востаннє: 22.08.17
Повідомлень: 327

2016-12-03 22:14  
А звезти звук із кращою якістю відео не буде змоги ні в кого?

Додано через 21 секунду:

звеcти)))

11FrYkT 
Модератор відео


З нами з: 20.02.11
Востаннє: 22.08.17
Повідомлень: 3810

2016-12-03 22:46  
ZETMAN , додав в опис 2 аудіо, вони однакові крім кодека і бітрейту
akon111 
Відео Гуртом - запис з ТБ
Відео Гуртом - запис з ТБ


З нами з: 28.08.09
Востаннє: 17.08.17
Повідомлень: 1220

2016-12-04 08:02  
ооо...бачив я це колись
Ваш часовий пояс: GMT + 2 Години

Нова тема   Відповісти