Дуже погані матусі / Bad Moms (2016) Remux 1080p Ukr/Eng | Sub Eng

Нові коментарі

Нова тема   Відповісти
Останній раз роздавалося Zinoviy80 (2017-12-17)
Автор Повідомлення
staf777 
Відео Гуртом - підтримка та поширення
Відео Гуртом - підтримка та поширення


З нами з: 16.11.16
Востаннє: 06.11.17
Повідомлень: 522

2016-12-03 11:04  
Дуже погані матусі / Bad Moms (2016) Remux 1080p Ukr/Eng | Sub Eng



Жанр: комедія
Країна: США



Кінокомпанія: STX Entertainment, Huayi Brothers Media, Block Entertainment, Universal
Режисер: Скотт Мур, Джон Лукас
Актори: Міла Куніс, Крістен Белл, Кетрін Хан, Крістіна Епплґейт, Джада Пінкетт Сміт, Уна Лоуренс, Енні Мумоло, Емджей Ентоні, Девід Волтон, Кларк Дюк

Сюжет:
Чому тільки татам дозволено розважатися в своє задоволення? Зустрічайте комедію про мам, що спростовують стереотипи, від авторів "Похмілля у Вегасі" і "21 і більше" Скотта Мура і Джона Лукаса. У Емі ідеальне життя: щасливий шлюб, діти і успішна кар'єра. Але чи є це запорукою щастя, якщо бідна жінка перебуває в постійній напрузі? Емі знаходить союзників серед матерів у школі, які також незадоволені суворими і важкими обов'язками, вигаданими главою батьківської ради Гвендолін. Три подруги шукають відпочинку та розваг разом, дратуючи "ідеальних" матерів зі школи.

Тривалість: 01:40:57
Якість: Remux 1080p

Відео:
кодек:
розмір кадру: 1920 х 1080
бітрейт: 29.7 Mб/с

Аудіо # 1:
мова: українська
переклад: професійний дубльований (iTunes)
кодек: 5.1
бітрейт: 384 кб/с

Аудіо # 2:
мова: англійська
переклад: оригінал
кодек: -HD MA 7.1
бітрейт: 4137 кб/с

Субтитри:
мова: англійська
тип: програмні (м'які)
формат: PGS
Info:
General
Unique ID : 231167345069442298223469306921569760757 (0xADE936116C9E66EF933AAD55572835F5)
Complete name : K:\Фільми в HD\Комедія\Bad Moms (2016) Remux 1080p [staf777].
Format :
Format version : Version 4 / Version 2
File size : 24.1 GiB
Duration : 1h 40mn
Overall bit rate mode : Variable
Overall bit rate : 34.2 Mbps
Movie name : Bad Moms (2016) Remux 1080p Ukr/Eng | Sub Eng
Encoded date : UTC 2016-12-03 14:38:52
Writing application : mkvmerge v9.5.0 ('Quiet Fire') 64bit
Writing library : libebml v1.3.4 + libmatroska v1.4.5
Attachements : cover.jpg.jpg

Video
ID : 1
Format : AVC
Format/Info : Advanced Video Codec
Format profile : [email protected]
Format settings, CABAC : Yes
Format settings, ReFrames : 4 frames
Codec ID : V_MPEG4/ISO/AVC
Duration : 1h 40mn
Bit rate mode : Variable
Bit rate : 29.7 Mbps
Maximum bit rate : 33.0 Mbps
Width : 1 920 pixels
Height : 1 080 pixels
Display aspect ratio : 16:9
Frame rate mode : Constant
Frame rate : 23.976 (24000/1001) fps
Color space : YUV
Chroma subsampling : 4:2:0
Bit depth : 8 bits
Scan type : Progressive
Bits/(Pixel*Frame) : 0.597
Stream size : 20.9 GiB (87%)
Title : Bad Moms (2016) Remux 1080p Ukr/Eng | Sub Eng
Default : Yes
Forced : No

Audio #1
ID : 2
Format : AC-3
Format/Info : Audio Coding 3
Mode extension : CM (complete main)
Format settings, Endianness : Big
Codec ID : A_AC3
Duration : 1h 40mn
Bit rate mode : Constant
Bit rate : 384 Kbps
Channel(s) : 6 channels
Channel positions : Front: L C R, Side: L R, LFE
Sampling rate : 48.0 KHz
Frame rate : 31.250 fps (1536 spf)
Compression mode : Lossy
Stream size : 277 MiB (1%)
Title : 5.1 384 Kb/s [UA-DUB- iTunes]
Language : Ukrainian
Default : Yes
Forced : Yes

Audio #2
ID : 3
Format :
Format/Info : Digital Theater Systems
Format profile : MA / Core
Mode : 16
Format settings, Endianness : Big
Codec ID : A_DTS
Duration : 1h 40mn
Bit rate mode : Variable / Constant
Bit rate : 4 137 Kbps / 1 509 Kbps
Channel(s) : 8 channels / 6 channels
Channel positions : Front: L C R, Side: L R, Back: L R, LFE / Front: L C R, Side: L R, LFE
Sampling rate : 48.0 KHz
Frame rate : 93.750 fps (512 spf)
Bit depth : 24 bits
Compression mode : Lossless / Lossy
Stream size : 2.92 GiB (12%)
Title : -HD MA 7.1 [ORIGINAL]
Language : English
Default : No
Forced : No

Text
ID : 4
Format : PGS
Muxing mode : zlib
Codec ID : S_HDMV/PGS
Codec ID/Info : Picture based subtitle format used on BDs/HD-DVDs
Duration : 1h 35mn
Bit rate : 18.9 Kbps
Count of elements : 4146
Stream size : 12.8 MiB (0%)
Title : [Sud-Original]
Language : English
Default : Yes
Forced : No
Скріншоти:





Джерело:


Золотий реліз (завантажене не впливає на рейтинг)
 Трекер:    Зареєстрований   

Завантажити / скачати фільм українською



відео для новачків



 Зареєстрований:   2016-12-03 17:58
 Розмір:   24.13 GB 
 Оцінка фільму:   7.9/10 (Голосів: 14)
   
Інші релізи
Ваш часовий пояс: GMT + 2 Години

Нова тема   Відповісти