Афера під прикриттям / The Infiltrator (2016) Remux 1080p Ukr/Eng | Sub Eng

Нові коментарі

Нова тема   Відповісти
Автор Повідомлення
staf777 
Попереджень: 1
Попереджень: 1 


З нами з: 16.11.16
Востаннє: 17.02.19
Повідомлень: 2148

2016-12-03 07:20  
Афера під прикриттям / The Infiltrator (2016) Remux 1080p Ukr/Eng | Sub Eng



Жанр: драма, кримінальний, трилер, біографічний
Країна: Великобританія



Кінокомпанія: Good Films
Режисер: Бред Фурман
Актори: Брайан Кренстон, Ліенн Бест, Деніел Мейс, Том Вон-Лолор, Ніал Хейес, Лара Декаро, Джульєтт Обрі

Сюжет:
Правдива історія безстрашного оперативника, який зумів провернути найризикованішу і масштабну операцію під прикриттям в історії. Його робота в середовищі гангстерів, наркобаронів і могутніх банкірів розкрила найбільшу схему відмивання грошей і обрушила всю підпільну економіку кримінального світу.


Тривалість: 02:07:08
Якість: Remux 1080p
Відео:
кодек:
розмір кадру: 1920 х 1080
бітрейт: 31.4 Мб/с

Аудіо # 1:
мова: українська
переклад: багатоголосий закадровий
кодек: 5.1
бітрейт: 384 кб/с

Аудіо # 2:
мова: англійська
переклад: оригінал
кодек: -HD MA 5.1
бітрейт: 3451 кб/с

Аудіо # 3:
мова: англійська
переклад: коментарі режисера Бред Фурмана та актора Браяна Кренстона
кодек: 2.0
бітрейт: 192 кб/с

Субтитри:
мова: англійська (SDH)
тип: пререндерні
формат: PGS
Info
General
Unique ID : 192242122534929162677241415759064095062 (0x90A07C6CDF48E902B9D6B522CFE65956)
Complete name : K:\Фільми в HD\Трилер\The Infiltrator (2016).
Format :
Format version : Version 4 / Version 2
File size : 31.4 GiB
Duration : 2h 7mn
Overall bit rate mode : Variable
Overall bit rate : 35.4 Mbps
Movie name : The Infiltrator (2016) Remux 1080p Ukr/Eng | Sub Eng | Sub Eng
Encoded date : UTC 2016-12-02 19:43:56
Writing application : v9.5.0 ('Quiet Fire') 64bit
Writing library : libebml v1.3.4 + v1.4.5
Attachements : cover.jpg.png

Video
ID : 1
Format : AVC
Format/Info : Advanced Video Codec
Format profile : [email protected]
Format settings, CABAC : Yes
Format settings, ReFrames : 4 frames
Codec ID : V_MPEG4/ISO/AVC
Duration : 2h 7mn
Bit rate mode : Variable
Bit rate : 31.4 Mbps
Maximum bit rate : 35.0 Mbps
Width : 1 920 pixels
Height : 1 080 pixels
Display aspect ratio : 16:9
Frame rate mode : Constant
Frame rate : 23.976 (24000/1001) fps
Color space : YUV
Chroma subsampling : 4:2:0
Bit depth : 8 bits
Scan type : Progressive
Bits/(Pixel*Frame) : 0.631
Stream size : 27.9 GiB (89%)
Title : The Infiltrator (2016) Remux 1080p Ukr/Eng
Default : Yes
Forced : No

Audio #1
ID : 2
Format : AC-3
Format/Info : Audio Coding 3
Mode extension : CM (complete main)
Format settings, Endianness : Big
Codec ID : A_AC3
Duration : 2h 7mn
Bit rate mode : Constant
Bit rate : 384 Kbps
Channel(s) : 6 channels
Channel positions : Front: L C R, Side: L R, LFE
Sampling rate : 48.0 KHz
Frame rate : 31.250 fps (1536 spf)
Compression mode : Lossy
Stream size : 349 MiB (1%)
Title : 5.1 384 Kb/s [MVO-UA-iTunes]
Language : Ukrainian
Default : Yes
Forced : Yes

Audio #2
ID : 3
Format :
Format/Info : Digital Theater Systems
Format profile : MA / Core
Mode : 16
Format settings, Endianness : Big
Codec ID : A_DTS
Duration : 2h 7mn
Bit rate mode : Variable / Constant
Bit rate : 3 451 Kbps / 1 509 Kbps
Channel(s) : 6 channels
Channel positions : Front: L C R, Side: L R, LFE
Sampling rate : 48.0 KHz
Frame rate : 93.750 fps (512 spf)
Bit depth : 24 bits
Compression mode : Lossless / Lossy
Stream size : 3.07 GiB (10%)
Title : -HD MA 5.1 ~3451 Kb/s [Original]
Language : English
Default : No
Forced : No

Audio #3
ID : 4
Format : AC-3
Format/Info : Audio Coding 3
Mode extension : CM (complete main)
Format settings, Endianness : Big
Codec ID : A_AC3
Duration : 2h 7mn
Bit rate mode : Constant
Bit rate : 192 Kbps
Channel(s) : 2 channels
Channel positions : Front: L R
Sampling rate : 48.0 KHz
Frame rate : 31.250 fps (1536 spf)
Compression mode : Lossy
Stream size : 175 MiB (1%)
Title : 2.0 192 Kb/s|Audio Commentary with Director Brad Furman and Bryan Cranston|
Language : English
Default : No
Forced : No

Text
ID : 5
Format : PGS
Muxing mode : zlib
Codec ID : S_HDMV/PGS
Codec ID/Info : Picture based subtitle format used on BDs/HD-DVDs
Duration : 1h 56mn
Bit rate : 13.8 Kbps
Count of elements : 3449
Stream size : 11.5 MiB (0%)
Title : [Sub] English (SDH)
Language : English
Default : Yes
Forced : No
Скріншоти



Джерело:
Особиста оцінка: 8 - мені сподобалося


Золотий реліз (завантажене не впливає на рейтинг)
 Трекер:    Зареєстрований   

Завантажити / скачати фільм українською



відео для новачків



 Зареєстрований:   2016-12-03 14:07
 Розмір:   31.45 GB 
 Оцінка фільму:   7.2/10 (Голосів: 5)
   
Uberwinder 
VIP


З нами з: 18.11.16
Востаннє: 17.02.19
Повідомлень: 271

2017-02-25 15:00  
Як на мене, то фільм слабкуватий, рейтинг виглядає завищеним.
СержикTrancer 
Свій


З нами з: 13.11.15
Востаннє: 17.02.19
Повідомлень: 68

2017-11-16 21:15  
Слабкуватий ???
Lyolic 
VIP


З нами з: 04.08.09
Востаннє: 17.02.19
Повідомлень: 347

2017-11-19 23:00  
Люди, з відкритими портами, будь ласка, станьте на роздачу!
Дякую! Happy

drabaty 
Новенький


З нами з: 02.10.13
Востаннє: 17.02.19
Повідомлень: 5

2018-02-19 19:46  
Дякую за реліз! Одне питання, Ви Chapters при мультиплексуванні свідомо видаляєте?
Ваш часовий пояс: GMT + 2 Години

Нова тема   Відповісти