Загін самогубців [Театральна версія] / Suicide Squad [Theatrical Cut] (2016) AVC Ukr/Eng | Sub Eng

Нові коментарі

Нова тема   Відповісти
Автор Повідомлення
Anonymous 







2016-12-02 22:10  
Загін самогубців [Театральна версія] / Suicide Squad (2016) AVC Ukr/Eng | Sub Eng



Альтернативний постер


повнорозмірні зображення відкриються по кліку (з натиснутим CTRL чи кліком середньою кнопкою мишки - у новій вкладці)


Жанр: екшн, фентезі, пригодницький
Країна: США, Канада



Кінокомпанія: Atlas Entertainment, DC Comics, DC Entertainment, Dune Entertainment, Lin Pictures, Warner Bros. Pictures
Режисер: Девід Ейр / David Ayer
Актори: Марго Роббі / Margot Robbie, Вілл Сміт / Will Smith, Джаред Лето / Jared Leto, Джей Кортні / Jai Courtney, Кара Делавінь / Cara Delevingne, Джоел Кіннаман / Joel Kinnaman, Джей Ернандес / Jay Hernandez, Адевале Акіноє-Аґбаже / Adewale Akinnuoye-Agbaje, Карен Фукугара / Karen Fukuhara, Віола Девіс / Viola Davis та інші

Сюжет:
Важкі часи вимагають важких рішень. Урядове агентство змушене зібрати групу злодіїв для виконання небезпечних завдань і цілей. "Загін самогубців" натомість отримає більш короткі терміни позбавлення волі. Але чи варто випускати монстрів навіть заради доброї справи?

Ще один український трейлер



Рейтинг MPAA: PG-13 - дітям до 13 років перегляд не бажаний
Вікова категорія: 16+

Тривалість: 02:02:53 [Театральна версія] - порівняння Театральної та Розширеної версій
Якість: AVC
Відео:
кодек:
розмір кадру: 1152 х 480
бітрейт: 2450 Кбіт/с [crf=18.85]

Аудіо # 1:
мова: українська
переклад: професійний дубльований | студія Postmodern
кодек: 2.0
бітрейт: 192 Кбіт/с
Інформація про дубляж
Переклад: Сергій Ковальчук
Режисер дубляжу: Катерина Брайковська
Звукорежисер: Генадій Алєксєєв
Звукорежисер перезапису: Дмитро Мялковський
Ролі дублювали: Роман Чорний, Дмитро Терещук, Ольга Радчук, Андрій Самінін, Катерина Качан, Володимир Паляниця, Дмитро Сова, Катерина Брайковська та інші.

Фільм дубльовано компанією Postmodern
Аудіо # 2:
мова: англійська
переклад: оригінал
кодек: 5.1
бітрейт: 448 Кбіт/с

Субтитри #1:
мова: українська (форсовані)
тип: програмні (м'які)
формат: *.srt

Субтитри #2:
мова: англійська
тип: програмні (м'які)
формат: *.srt

Збережено оригінальні розділи
Info та log
Код:
Complete name               : Suicide Squad [Theatrical] (2016) [Ukr,Eng sub.Eng] AVC [Hurtom].
Format                      :
Format version              : Version 4 / Version 2
File size                   : 2.65 GiB
Duration                    : 2 h 2 min
Overall bit rate            : 3 093 kb/s

Video
ID                          : 1
Format                      : AVC
Format/Info                 : Advanced Video Codec
Format profile              : [email protected]
Format settings, CABAC      : Yes
Format settings, ReFrames   : 11 frames
Codec ID                    : V_MPEG4/ISO/AVC
Duration                    : 2 h 2 min
Bit rate                    : 2 450 kb/s
Width                       : 1 152 pixels
Height                      : 480 pixels
Display aspect ratio        : 2.40:1
Frame rate mode             : Constant
Frame rate                  : 23.976 (24000/1001) FPS
Color space                 : YUV
Chroma subsampling          : 4:2:0
Bit depth                   : 8 bits
Scan type                   : Progressive
Bits/(Pixel*Frame)          : 0.185
Stream size                 : 2.10 GiB (79%)
Title                       : Загін самогубців / Suicide Squad [Theatrical Cut] (2016) AVC [AFM]
Writing library             : core 148 r2721+55 e19946b t_mod_Custom [[email protected] X86_64]
Encoding settings           : cabac=1 / ref=11 / deblock=1:-3:-2 / analyse=0x3:0x113 / me=umh / subme=10 / psy=1 / fade_compensate=0.00 / psy_rd=1.00:0.00 / mixed_ref=1 / me_range=32 / chroma_me=1 / trellis=2 / 8x8dct=1 / cqm=0 / deadzone=21,11 / fast_pskip=0 / chroma_qp_offset=-2 / threads=6 / lookahead_threads=1 / sliced_threads=0 / nr=0 / decimate=1 / interlaced=0 / bluray_compat=0 / constrained_intra=0 / fgo=0 / bframes=12 / b_pyramid=2 / b_adapt=2 / b_bias=0 / direct=1 / weightb=1 / open_gop=0 / weightp=2 / keyint=240 / keyint_min=23 / scenecut=40 / intra_refresh=0 / rc_lookahead=40 / rc=crf / mbtree=0 / crf=18.8500 / qcomp=0.65 / qpmin=0:0:0 / qpmax=69:69:69 / qpstep=4 / vbv_maxrate=50000 / vbv_bufsize=62500 / crf_max=0.0 / nal_hrd=none / filler=0 / ip_ratio=1.35 / pb_ratio=1.27 / aq=3:0.85 / aq-sensitivity=10.00 / aq-factor=1.00:1.00:1.00 / aq2=0 / aq3=0
Language                    : English
Default                     : Yes
Forced                      : No

Audio #1
ID                          : 2
Format                      : AC-3
Format/Info                 : Audio Coding 3
Mode extension              : CM (complete main)
Format settings, Endianness : Big
Codec ID                    : A_AC3
Duration                    : 2 h 2 min
Bit rate mode               : Constant
Bit rate                    : 192 kb/s
Channel(s)                  : 2 channels
Channel positions           : Front: L R
Sampling rate               : 48.0 kHz
Frame rate                  : 31.250 FPS (1536 spf)
Bit depth                   : 16 bits
Compression mode            : Lossy
Delay relative to video     : 912 ms
Stream size                 : 169 MiB (6%)
Title                       : Dub [Postmodern] 2.0 192 Kbps [Hurtom-Covenant]
Language                    : Ukrainian
Default                     : Yes
Forced                      : No

Audio #2
ID                          : 3
Format                      : AC-3
Format/Info                 : Audio Coding 3
Mode extension              : CM (complete main)
Format settings, Endianness : Big
Codec ID                    : A_AC3
Duration                    : 2 h 2 min
Bit rate mode               : Constant
Bit rate                    : 448 kb/s
Channel(s)                  : 6 channels
Channel positions           : Front: L C R, Side: L R, LFE
Sampling rate               : 48.0 kHz
Frame rate                  : 31.250 FPS (1536 spf)
Bit depth                   : 16 bits
Compression mode            : Lossy
Stream size                 : 394 MiB (14%)
Title                       : Original, 5.1 448 kbps
Language                    : English
Default                     : No
Forced                      : No

Text #1
ID                          : 4
Format                      : UTF-8
Codec ID                    : S_TEXT/UTF8
Codec ID/Info               : UTF-8 Plain Text
Duration                    : 1 h 51 min
Bit rate                    : 5 b/s
Count of elements           : 96
Stream size                 : 4.49 KiB (0%)
Title                       : Ukr Forced
Language                    : Ukrainian
Default                     : Yes
Forced                      : Yes

Text #2
ID                          : 5
Format                      : UTF-8
Codec ID                    : S_TEXT/UTF8
Codec ID/Info               : UTF-8 Plain Text
Duration                    : 1 h 55 min
Bit rate                    : 46 b/s
Count of elements           : 1447
Stream size                 : 39.2 KiB (0%)
Title                       : Eng full
Language                    : English
Default                     : No
Forced                      : No

Menu
00:00:00.000                : en:
00:09:07.505                : en:
00:19:03.726                : en:
00:29:27.140                : en:
00:39:17.313                : en:
00:50:21.227                : en:
01:00:10.106                : en:
01:11:46.928                : en:
01:22:46.128                : en:
01:32:01.099                : en:
01:39:21.831                : en:
01:52:27.991                : en:

Код:
[info]: frame I:1574 Avg QP:15.84 size: 65559
[info]: frame P:35951 Avg QP:17.48 size: 26187
[info]: frame B:139261 Avg QP:20.23 size: 8715
[info]: consecutive B-frames: 2.2% 1.7% 5.4% 14.6% 17.9% 44.8% 7.2% 1.6% 1.5% 0.9% 0.7% 0.4% 1.1%
[info]: mb I I16..4: 3.2% 85.1% 11.7%
[info]: mb P I16..4: 0.7% 12.0% 1.5% P16..4: 36.6% 31.9% 16.2% 0.0% 0.0% skip: 1.1%
[info]: mb B I16..4: 0.0% 0.7% 0.1% B16..8: 47.2% 13.9% 3.4% direct: 4.6% skip:30.0% L0:46.8% L1:46.4% BI: 6.8%
[info]: 8x8 transform intra:84.2% inter:64.7%
[info]: coded y,uvDC,uvAC intra: 94.1% 85.0% 62.3% inter: 25.9% 16.1% 2.0%
[info]: i16 v,h,dc,p: 11% 10% 10% 68%
[info]: i8 v,h,dc,ddl,ddr,vr,hd,vl,hu: 8% 7% 6% 11% 16% 14% 15% 12% 13%
[info]: i4 v,h,dc,ddl,ddr,vr,hd,vl,hu: 6% 5% 2% 11% 18% 15% 16% 12% 14%
[info]: i8c dc,h,v,p: 40% 25% 18% 17%
[info]: Weighted P-Frames: Y:7.8% UV:5.6%
[info]: ref P L0: 44.0% 8.0% 18.2% 7.4% 6.2% 4.3% 3.9% 2.2% 2.1% 1.7% 1.8% 0.2% 0.0%
[info]: ref B L0: 66.9% 13.6% 7.3% 3.8% 2.7% 2.1% 1.6% 1.0% 0.7% 0.3%
[info]: ref B L1: 92.5% 7.5%
[info]: kb/s:2450.26


Джерело: &
Подяка за українську доріжку п.Covenant'у, українські форсовані субтитри - igor911.

ЗАЛИШАЙТЕСЬ ЯКОМОГА ДОВШЕ НА РОЗДАЧІ!
ЗАВАНТАЖИВ САМ - ДАЙ ЗАВАНТАЖИТИ ІНШИМ


 Трекер:    Зареєстрований   

Завантажити / скачати фільм українською



відео для новачків



 Зареєстрований:   2016-12-02 22:33
 Розмір:   2.65 GB 
 Оцінка фільму:   7.3/10 (Голосів: 42)
   
Інші релізи
   Загін самогубців [Розширена версія] / Suicide Squad [Extended Cut] (2016) 1080p Ukr/Eng | Sub Ukr/Eng Demrandir  7 / 1   13.54 GB   2017-11-01 16:31 
   Загін самогубців [Розширена версія] / Suicide Squad [Extended Cut] (2016) [2.0 ] Український дубляж + вставки оригіналу Demrandir  0 / 0   185 MB   2017-10-21 12:26 
   Загін самогубців / Suicide Squad (2016) Covenant  21 / 0   1.45 GB   2017-10-15 17:37 
   Загін самогубців [Розширена версія] / Suicide Squad [Extended Cut] (2016) 720p Ukr/Eng | Sub Eng jack  6 / 0   7.84 GB   2016-12-21 04:11 
   Загін самогубців [Розширена версія] / Suicide Squad [Extended Cut] (2016) 720p Ukr/Eng | Sub Eng jack  26 / 0   3.83 GB   2016-12-21 01:03 
   Загін самогубців [Розширена версія] / Suicide Squad [Extended Cut] (2016) AVC Ukr/Eng | Sub Eng Dark Invader  15 / 0   2.67 GB   2016-12-20 11:29 
   Загін самогубців [Розширена версія] / Suicide Squad [Extended Cut] (2016) | Sub Eng Jatx  14 / 0   1.46 GB   2016-12-19 18:35 
   Загін самогубців [Театральна версія] / Suicide Squad (2016) 720p-mini (60 fps) Drool  2 / 0   3.75 GB   2016-12-15 17:12 
   Загін самогубців [Театральна версія] / Suicide Squad [Theatrical Cut] (2016) 1080p Ukr/Eng | Sub Eng igor911  4 / 0   15.34 GB   2016-12-04 09:24 
   Загін самогубців [Театральна версія] / Suicide Squad [Theatrical Cut] (2016) 720p Ukr/Eng | Sub Eng igor911  7 / 0   6.81 GB   2016-12-02 12:37 
   Загін самогубців [Театральна версія] / Suicide Squad [Theatrical Cut] (2016) 1080p 3D [HalfOverUnder] Ukr/Eng | Sub Eng -VipeR-  5 / 0   8.72 GB   2016-12-01 14:40 
adamantick 
Новенький


З нами з: 06.02.12
Востаннє: 20.11.17
Повідомлень: 10

2016-12-02 22:42  
чим вона краща за то що показували в кінотеатрах?
Anonymous 







2016-12-02 22:43  
adamantick, нічим, це вона і є.
N.W.A 
VIP


З нами з: 22.11.13
Востаннє: 25.11.17
Повідомлень: 298

2016-12-02 23:17  
А чи буде звук 5.1?
Anonymous 







2016-12-02 23:20  
N.W.A, не буде.
olimpian1 
Свій


З нами з: 19.10.13
Востаннє: 19.11.17
Повідомлень: 66

2016-12-03 09:15  
Дякую, подивимось на МаргоHappy)
NOWW 
Новенький


З нами з: 23.03.15
Востаннє: 24.11.17
Повідомлень: 21

2016-12-03 18:08  
Розширену версію від когось чекати?
volodymyr_sav 
VIP


З нами з: 07.10.13
Востаннє: 24.11.17
Повідомлень: 1190

2016-12-03 22:03  
А менші розміри в цій якості будуть? Дякую.
Anonymous 







2016-12-03 22:05  
volodymyr_sav, запитай автора цього релізу на 1,45 Гб, коли він оновить йог до бдріпа.
cheff86 
Новенький


З нами з: 24.07.16
Востаннє: 19.11.17
Повідомлень: 2

2016-12-11 10:49  
Тупезний, бездарний і примітивний фільм
Ваш часовий пояс: GMT + 2 Години

Нова тема   Відповісти