Одрі Роуз / Audrey Rose (1977) Remux 1080p Ukr/Eng | Sub Eng

Нові коментарі

Нова тема   Відповісти
Останній раз роздавалося staf777 (2017-09-11)
Автор Повідомлення
staf777 
Відео Гуртом - підтримка та поширення
Відео Гуртом - підтримка та поширення


З нами з: 16.11.16
Востаннє: 11.09.17
Повідомлень: 522

2016-12-02 10:09  
Одрі Роуз / Audrey Rose (1977) Remux 1080p Ukr/Eng | Sub Eng

Одрі Роуз / Audrey Rose (1977) Remux 1080p Ukr/Eng | Sub Eng


Жанр: жахи, фентезі, трилер
Країна: США



Кінокомпанія: Sterobcar Productions
Режисер: Роберт Вайз
Актори: Марша Мейсон, Ентоні Хопкінс, Джон Бек, С'юзен Свіфт, Норман Ллойд, Джон Хіллерман, Роберт Уолден, Філіп Стерлінг, Айві Джонс, Стівен Перлман, Мері Джексон, Річард Лоусон, Тоні Бранд, Елізабет Фарлі

Сюжет:
Все про що мріють Білл і Дженет Темпелтон, це спокійне, неквапливе життя зі своєю 11-річною дочкою Іві. Але їхні мрії в одну мить перетворюються в порох: у Іві з'являються бачення про страшні події, які з нею ніколи не відбувалися, а їх самих починає маніакально переслідувати дивний незнайомець, який намагається переконати їх в тому, що Іві не їхня дочка. І коли колишня щаслива пара думає, що нічого гіршого цього статися не може, вони стикаються з жахом, який не побачиш навіть у найстрашніших снах, - з силою з загробного світу, намагається знищити найцінніше, що є в їхньому житті - їх дочка.


Тривалість: 01:53:21
Якість: Remux 1080p
Відео:
кодек:
розмір кадру: 1920x1080
бітрейт: 30 Мбіт/сек

Аудіо # 1:
мова: українська
переклад: багатоголосий закадровий
кодек: 2.0
бітрейт: 192 кб/с

Аудіо # 2:
мова: англійська
переклад: оригінал
кодек: -HD MA 2.0
бітрейт: 1714 кб/с

Субтитри:
мова: англійська (SDH)
тип: пререндерні
формат: *.pgs
Info

General
Unique ID : 225892138341525392554578380909037217231 (0xA9F13E4BC0203E46A731A2C72C6FE5CF)
Complete name : K:\Фільми в HD\Жахи\Audrey Rose (1977) [Ukr,Eng] BD-Remux 1080p [Hurtom].
Format :
Format version : Version 4 / Version 2
File size : 25.3 GiB
Duration : 1h 53mn
Overall bit rate mode : Variable
Overall bit rate : 31.9 Mbps
Movie name : Одрі Роуз / Audrey Rose (1977) Remux 1080p
Encoded date : UTC 2016-12-02 06:32:32
Writing application : mkvmerge v9.5.0 ('Quiet Fire') 64bit
Writing library : libebml v1.3.4 + libmatroska v1.4.5
Attachements : cover.jpg.jpg

Video
ID : 1
Format : AVC
Format/Info : Advanced Video Codec
Format profile : [email protected]
Format settings, CABAC : Yes
Format settings, ReFrames : 4 frames
Codec ID : V_MPEG4/ISO/AVC
Duration : 1h 53mn
Bit rate mode : Variable
Bit rate : 30.0 Mbps
Maximum bit rate : 35.0 Mbps
Width : 1 920 pixels
Height : 1 080 pixels
Display aspect ratio : 16:9
Frame rate mode : Constant
Frame rate : 23.976 (24000/1001) fps
Standard : NTSC
Color space : YUV
Chroma subsampling : 4:2:0
Bit depth : 8 bits
Scan type : Progressive
Bits/(Pixel*Frame) : 0.603
Stream size : 23.8 GiB (94%)
Title : \Audrey Rose (1977) [Ukr,Eng] BD-Remux 1080p
Default : Yes
Forced : No
Color range : Limited
Color primaries : BT.709
Transfer characteristics : BT.709
Matrix coefficients : BT.709

Audio #1
ID : 2
Format : AC-3
Format/Info : Audio Coding 3
Mode extension : CM (complete main)
Format settings, Endianness : Big
Codec ID : A_AC3
Duration : 1h 53mn
Bit rate mode : Constant
Bit rate : 192 Kbps
Channel(s) : 2 channels
Channel positions : Front: L R
Sampling rate : 48.0 KHz
Frame rate : 31.250 fps (1536 spf)
Compression mode : Lossy
Stream size : 156 MiB (1%)
Title : 2. 192 K/bs [MVO-UA]
Language : Ukrainian
Default : Yes
Forced : Yes

Audio #2
ID : 3
Format :
Format/Info : Digital Theater Systems
Format profile : MA / Core
Mode : 16
Format settings, Endianness : Big
Codec ID : A_DTS
Duration : 1h 53mn
Bit rate mode : Variable / Constant
Bit rate : 1 695 Kbps / 1 509 Kbps
Channel(s) : 2 channels
Channel positions : Front: L R
Sampling rate : 48.0 KHz
Frame rate : 93.750 fps (512 spf)
Bit depth : 24 bits
Compression mode : Lossless / Lossy
Stream size : 1.34 GiB (5%)
Title : -HD Master Audio 2.0 1509 K/bs
Default : No
Forced : No

Text
ID : 4
Format : PGS
Muxing mode : zlib
Codec ID : S_HDMV/PGS
Codec ID/Info : Picture based subtitle format used on BDs/HD-DVDs
Duration : 1h 50mn
Bit rate : 12.2 Kbps
Count of elements : 3222
Stream size : 9.67 MiB (0%)
Title : Sub
Default : Yes
Forced : No
Скріншоти




Джерело: &
Подяка пану slavik_v_z за запис з amc та пану Arsenfpu за готовий реліз на ex.ua


Золотий реліз (завантажене не впливає на рейтинг)
 Трекер:    Зареєстрований   

Завантажити / скачати фільм українською



відео для новачків



 Зареєстрований:   2016-12-02 17:56
 Розмір:   25.26 GB 
 Оцінка фільму:   7/10 (Голосів: 3)
   
Інші релізи
   Одрі Роуз / Audrey Rose (1977) Ukr/Eng Arsenfpu  3 / 0   2.06 GB   2016-10-08 19:26 
Ваш часовий пояс: GMT + 2 Години

Нова тема   Відповісти