Світське життя / Café Society (2016) Remux 1080p Ukr/Eng

Нові коментарі

Нова тема   Відповісти
Автор Повідомлення
staf777 
Відео Гуртом - підтримка та поширення
Відео Гуртом - підтримка та поширення


З нами з: 16.11.16
Востаннє: 07.12.19
Повідомлень: 3038

2016-12-02 08:41  
Світське життя / Café Society (2016) Remux 1080p Ukr/Eng

Світське життя / Café Society (2016) Remux 1080p Ukr/Eng


Жанр: комедія, драма, романтичний
Країна: США



Кінокомпанія: FilmNation Entertainment, Gravier Productions, Perdido Productions
Режисер: Вуді Аллен
Актори: Дженні Берлін, Стів Карелл, Джесі Айзенберґ, Крістен Стюарт, Блейк Лайвлі, Паркер Поузі, Корі Столл, Кен Стотт, Анна Кемп, Пол Шнайдер

Сюжет:
1930-і роки. Молодий хлопець приїжджає з Нью-Йорка до Голлівуду в надії знайти роботу в кіноіндустрії. У Лос-Анджелесі він закохується і виявляє себе в самому центрі виру бурхливого світського життя і подій, які визначили дух того часу.
Чи знаєте ви, що...

• Стів Карелл замінив Брюса Вілліса після того, як зйомки вже почалися. Спершу повідомлялося, що причиною відходу Вілліса стала зайнятість в іншому проекті, але пізніше з'ясувалося, що його звільнили, оскільки Вуді Аллен і вся знімальна група більше не могли терпіти його поведінку і нездатність запам'ятовувати свої репліки. Це друга спільна робота Карелла з Алленом, оскільки раніше він знявся у режисера у фільмі Мелінда і Мелінда (2004).
• Це перша робота Вуді Аллена знята в цифровому форматі з використанням Sony Cinealta F65.
• Це вже третій раз, коли Крістен Стюарт і Джессі Айзенберг знімаються разом. Раніше вони зіграли у фільмах Парк культури і відпочинку (2009) і Ультраамериканцы (2015).
• Корі Столл раніше знявся у фільмі Вуді Аллена Північ у Парижі (2011).
• Джессі Айзенберг раніше знявся у фільмі Вуді Аллена Римські пригоди (2012 рік).
• Це перший фільм Вуді Аллена за останні вісім років, прокатом якого не буде займатися Sony Pictures Classics.
• Вуді Аллен вперше працює з оператором Вітторіо Стораро.
• Це перший фільм Вуді Аллена, знятий у форматі 2:00:1 — таке співвідношення сторін зазвичай використовується оператором Вітторіо Стораро.
• Джессі Айзенберг, Корі Столл, Стів Карелл, Паркер Поузі і Тоні Сирико — все вже знімалися у Аллена.
• Паркер Поузі раніше знялася у Аллена у фільмі Ірраціональний людина (2015 рік).
Тривалість: 01:36:06
Якість: Remux 1080p
Відео:
кодек:
розмір кадру: 1920x1080
бітрейт: 31896 кб/с

Аудіо # 1:
мова: українська
переклад: професійний дубльований
кодек: 5.1
бітрейт: 384 кб/с

Аудіо # 2:
мова: англійська
переклад: оригінал
кодек: -HD MA 5.1
бітрейт: 3221 кб/с
MI

General
Unique ID : 210821873138078761658391281626039800357 (0x9E9AD0DAF20CAE4E91D19ECA3DE55225)
Complete name : K:\Фільми в HD\Драма\00000.
Format :
Format version : Version 4 / Version 2
File size : 23.8 GiB
Duration : 1h 36mn
Overall bit rate mode : Variable
Overall bit rate : 35.5 Mbps
Movie name : Світське життя / Café Society (2016) Remux 1080p Ukr/Eng [ iTunes]
Encoded date : UTC 2016-12-02 17:08:28
Writing application : v9.5.0 ('Quiet Fire') 64bit
Writing library : libebml v1.3.4 + v1.4.5
Attachements : cover.jpg.jpg

Video
ID : 1
Format : AVC
Format/Info : Advanced Video Codec
Format profile : [email protected]
Format settings, CABAC : Yes
Format settings, ReFrames : 3 frames
Codec ID : V_MPEG4/ISO/AVC
Duration : 1h 36mn
Bit rate mode : Variable
Bit rate : 32.0 Mbps
Maximum bit rate : 35.0 Mbps
Width : 1 920 pixels
Height : 1 080 pixels
Display aspect ratio : 16:9
Frame rate mode : Constant
Frame rate : 23.976 (24000/1001) fps
Color space : YUV
Chroma subsampling : 4:2:0
Bit depth : 8 bits
Scan type : Progressive
Bits/(Pixel*Frame) : 0.644
Stream size : 21.4 GiB (90%)
Title : Світське життя / Café Society (2016)
Writing library : core 146 r2538 121396c
Encoding settings : cabac=1 / ref=4 / deblock=1:-1:-1 / analyse=0x3:0x133 / me=umh / subme=10 / psy=1 / psy_rd=1.00:0.15 / mixed_ref=1 / me_range=24 / chroma_me=1 / trellis=2 / 8x8dct=1 / cqm=0 / deadzone=21,11 / fast_pskip=1 / chroma_qp_offset=-3 / threads=48 / lookahead_threads=4 / sliced_threads=0 / slices=4 / nr=0 / decimate=1 / interlaced=0 / bluray_compat=1 / constrained_intra=0 / bframes=3 / b_pyramid=1 / b_adapt=2 / b_bias=0 / direct=3 / weightb=1 / open_gop=1 / weightp=1 / keyint=24 / keyint_min=1 / scenecut=40 / intra_refresh=0 / rc_lookahead=24 / rc=2pass / mbtree=1 / bitrate=32000 / ratetol=1.0 / qcomp=0.60 / qpmin=0 / qpmax=69 / qpstep=4 / cplxblur=20.0 / qblur=0.5 / vbv_maxrate=35000 / vbv_bufsize=30000 / nal_hrd=vbr / filler=0 / ip_ratio=1.40 / aq=1:1.00
Default : Yes
Forced : No
Color range : Limited
Color primaries : BT.709
Transfer characteristics : BT.709
Matrix coefficients : BT.709

Audio #1
ID : 2
Format : AC-3
Format/Info : Audio Coding 3
Mode extension : CM (complete main)
Format settings, Endianness : Big
Codec ID : A_AC3
Duration : 1h 36mn
Bit rate mode : Constant
Bit rate : 384 Kbps
Channel(s) : 6 channels
Channel positions : Front: L C R, Side: L R, LFE
Sampling rate : 48.0 KHz
Frame rate : 31.250 fps (1536 spf)
Compression mode : Lossy
Stream size : 264 MiB (1%)
Title : 5.1 384 Kb/s [Dub-Ukr] [ iTunes]
Language : Ukrainian
Default : Yes
Forced : Yes

Audio #2
ID : 3
Format :
Format/Info : Digital Theater Systems
Format profile : MA / Core
Mode : 16
Format settings, Endianness : Big
Codec ID : A_DTS
Duration : 1h 36mn
Bit rate mode : Variable / Constant
Bit rate : 3 221 Kbps / 1 509 Kbps
Channel(s) : 6 channels
Channel positions : Front: L C R, Side: L R, LFE
Sampling rate : 48.0 KHz
Frame rate : 93.750 fps (512 spf)
Bit depth : 24 bits
Compression mode : Lossless / Lossy
Stream size : 2.16 GiB (9%)
Title : -HD MA 5.1 1509 Kb/s [Original]
Language : English
Default : No
Forced : No
Скріншоти:




Джерело: &
Особиста оцінка: 8 - мені сподобалося
Світське життя / Café Society (2016) Remux 1080p Ukr/Eng Світське життя / Café Society (2016) Remux 1080p Ukr/Eng


Золотий реліз (завантажене не впливає на рейтинг)
 Трекер:    Зареєстрований   

Завантажити / скачати фільм українською



відео для новачків



 Зареєстрований:   2016-12-02 20:47
 Розмір:   23.83 GB 
 Оцінка фільму:   8/10 (Голосів: 8)
   
Інші релізи
   Світське життя / Café Society (2016) AVC Ukr/Eng | Sub Eng staf777  4 / 0   2.08 GB   2018-09-03 09:08 
   Світське життя / Café Society (2016) 1080p Ukr/Eng | Sub Eng 11FrYkT  3 / 0   9.66 GB   2016-10-18 19:18 
   Світське життя / Café Society (2016) Gelios  11 / 0   1.45 GB   2016-10-17 22:59 
   Світське життя / Café Society (2016) 720p Ukr/Eng | Sub Eng 11FrYkT  5 / 0   4.51 GB   2016-10-17 22:56 
Uberwinder 
VIP


З нами з: 18.11.16
Востаннє: 07.12.19
Повідомлень: 277

2017-08-24 10:49  
Фільми Вуді Аллена завжди цінував за тонкий та іронічний гумор і виважені діалоги персонажів. Але цей фільм виявився досить посереднім і, у цілому, не дуже вдалим.
Ваш часовий пояс: GMT + 2 Години

Нова тема   Відповісти