Кнур Багряний / Kurenai no Buta / Porco Rosso (1992) Ukr / Jap Sub Ukr

Нові коментарі

Нова тема   Відповісти
Автор Повідомлення
Jack_Noname 
Новенький


З нами з: 28.11.16
Востаннє: 21.01.17
Повідомлень: 1

2016-11-28 20:33  
Кнур Багряний / Kurenai no Buta / Porco Rosso (1992) Ukr / Jap Sub Ukr

Кнур Багряний / Kurenai no Buta / Porco Rosso (1992) Ukr / Jap Sub Ukr


Жанр: пригоди, історія, комедія
Країна: Японія



7.69 (3496 голосів)

Кінокомпанія: Ghibli
Режисер: Хаяо Міязакі / Miyazaki Hayao
Ролі озвучують: Моріяма Шуїчіро, Като Токіко, Катсура Санші, Каміжоу Тсунехіко, Окамура Акемі, Оотсука Акіо, Секі Хіроко та ін..

Сюжет:
Італія. Післявоєнні часи. У країні владу захоплює Муссоліні й починає встановлювати фашистську диктатуру. Марко Паґот, більш відомий як Порко Росо, після першої світової війни розчарувався у війні й почав вести тихе відлюдне життя, перебиваючись винагородою за порятунок кораблів від піратів. І тут його розмірене життя перериває американський пілот Катіс, що вирішив помірятись із ним силами.


Реліз придатний до перегляду на побутових DVD-програвачах

Тривалість: 1 серія: 1:31
Якість:
Відео:
кодек:
розмір кадру: 720 x 392
бітрейт: 1500 кб/с

Аудіо # 1:
мова: українська
переклад: багатоголосий закадровий
кодек: MP3
бітрейт: 320 кб/с

Аудіо # 2:
мова: японська
переклад: оригінал
кодек: MP3
бітрейт: 320 кб/с

Джерело озвучення:


Субтитри:
мова: українська
тип: програмні (м'які)
формат: *.ssa
Info
General
Complete name : G:\Anime\Ghibli\Porco Rosso (1992)\Porco_Rosso_1992.avi
Format : AVI
Format/Info : Audio Video Interleave
File size : 1.40 GiB
Duration : 1 h 33 min
Overall bit rate : 2 154 kb/s
Writing application : VirtualDubMod 1.5.10.2 (build 2540/release)
Writing library : VirtualDubMod build 2540/release

Video
ID : 0
Format : MPEG-4 Visual
Format profile : Advanced [email protected]
Format settings, BVOP : 2
Format settings, QPel : No
Format settings, GMC : No warppoints
Format settings, Matrix : Default (H.263)
Codec ID :
Codec ID/Hint :
Duration : 1 h 33 min
Bit rate : 1 500 kb/s
Width : 720 pixels
Height : 392 pixels
Display aspect ratio : 1.85:1
Frame rate : 23.976 (23976/1000) FPS
Color space : YUV
Chroma subsampling : 4:2:0
Bit depth : 8 bits
Scan type : Progressive
Compression mode : Lossy
Bits/(Pixel*Frame) : 0.222
Stream size : 1 001 MiB (70%)
Writing library : 73

Audio #1
ID : 1
Format : MPEG Audio
Format version : Version 1
Format profile : Layer 3
Codec ID : 55
Codec ID/Hint : MP3
Duration : 1 h 33 min
Bit rate mode : Constant
Bit rate : 320 kb/s
Channel(s) : 2 channels
Sampling rate : 48.0 kHz
Compression mode : Lossy
Stream size : 214 MiB (15%)
Alignment : Aligned on interleaves
Interleave, duration : 42 ms (1.00 video frame)
Interleave, preload duratio : 504 ms
Writing library : LAME3.99r
Encoding settings : -m s -V 4 -q 0 -lowpass 20.5

Audio #2
ID : 2
Format : MPEG Audio
Format version : Version 1
Format profile : Layer 3
Codec ID : 55
Codec ID/Hint : MP3
Duration : 1 h 33 min
Bit rate mode : Constant
Bit rate : 320 kb/s
Channel(s) : 2 channels
Sampling rate : 48.0 kHz
Compression mode : Lossy
Stream size : 214 MiB (15%)
Alignment : Aligned on interleaves
Interleave, duration : 42 ms (1.00 video frame)
Interleave, preload duratio : 504 ms
Writing library : LAME3.99r
Encoding settings : -m s -V 4 -q 0 -lowpass 20.5
Скріншоти





Джерело:
Особиста оцінка: 3 - тільки під градусом...


Авторський реліз (завантажувати можна без реєстрації)
 Трекер:    Зареєстрований   

Завантажити / скачати аніме українською



відео для новачків



 Зареєстрований:   2016-11-28 20:38
 Розмір:   1.4 GB 
 Оцінка аніме:   9.8/10 (Голосів: 9)
   
Пан_Олександр 
Відео Гуртом - дизайнер
Відео Гуртом - дизайнер


З нами з: 21.10.10
Востаннє: 18.08.17
Повідомлень: 162

2016-11-28 21:27  
Допишіть хто читав текст та виправте 1 скрін.
Ваш часовий пояс: GMT + 2 Години

Нова тема   Відповісти