Копи-новобранці (Сезони 1-4) / Rookie Blue (Seasons 1-4) (2010-2013) , 720p Ukr/Eng

Нові коментарі

Нова тема   Відповісти
Автор Повідомлення
Anonymous 







2016-11-27 19:03  
Копи-новобранці (Сезони 1-4) / Rookie Blue (Seasons 1-4) (2010-2013) , 720p Ukr/Eng

Копи-новобранці (Сезони 1-4) / Rookie Blue (Seasons 1-4) (2010-2013) , 720p Ukr/Eng


Жанр: детектив, драма
Країна: Канада, США



Кінокомпанія: CanWest Global Television Network, Entertainment One, Shaw Media
Режисер: Девід Уеллінгтон, Джон Фоусет, Стів ДіМарко
Актори: Міссі Перегрім, Грегорі Сміт, Бен Басс, Енука Окума, Ерік Джонсон, Тревіс Мілн, Шарлотта Салліван, Ноам Дженкінс, Метт Гордон, Мелані Ніколллз-Кінг
Ролі озвучують: Марина Локтіонова, Олена Бліннікова, Анатолій Пашнін, Дмитро Терещук

Сюжет:
Серіал розповідає про п'ятьох новобранців, які тільки що закінчили поліцейську академію й влаштувалися працювати в одне з відділень поліції. Вони зовсім молоді, і звичайно ж недосвідчені. Але помилок на службі не повинно бути, адже кожний невірний крок може коштувати їм життя…


Тривалість: 1 серія: 42:00 (цілком серій: 52)
Перелік серій
Сезон 1
01. Fresh Paint
02. Mercury Retrograde
03. Fite Nite
04. Signals Crossed
05. Broad Daylight
06. Bullet Proof
07. Hot & Bothered
08. Honor Roll
09. Girlfriend of the Year
10. Big Nickel
11. To Serve or Protect
12. In Blue
13. Takedown
Сезон 2
01. Butterflies
02. Might Have Been
03. Bad Moon Rising
04. Heart & Sparks
05. Stung
06. In Plain View
07. The One That Got Away
08. Monster
09. Brotherhood
10. Best Laid Plans
11. A Little Faith
12. On the Double
13. God's Good Grace
Сезон 3
01. The First Day of the Rest of Your Life
02. Class Dismissed
03. A Good Shoot
04. Girls' Night Out
05. Messy Houses
06. Coming Home
07. Leap of Faith
08. The Girlfriend Experience
09. Out of Time
10. Cold Comforts
11. The Rules
12. Every Man
13. I Never
Сезон 4
01. Surprises
02. Homecoming
03. Different, Not Better
04. The Kids Are Not Alright
05. Poison Pill
06. Skeletons
07. Friday the 13th
08. For Better, for Worse
09. What I Lost
10. You Are Here
11. Deception
12. Under Fire
13. You Can See the Stars
Технічна інформація та скріншоти:
Сезон 1
Якість:
Відео:
кодек:
розмір кадру: 1280 х 720
бітрейт: ~5900 кб/с

Аудіо # 1:
мова: українська
переклад: багатоголосий закадровий
кодек: 2.0
бітрейт: 192 кб/с

Аудіо # 2:
мова: англійська
переклад: оригінал
кодек: 5.1
бітрейт: 1509 кб/с

Субтитри:
мова: англійська
тип: програмні (м'які)
формат: *.srt
Info
General
Unique ID : 194446205995061262987298405391635322264 (0x9248FA213FB6FA49856350C1F2C81598)
Complete name : E:\_inbox\torrents\Support\Rookie Blue [720p, Ukr, Eng]\Season 1 ()\rookie blue s01e01 bluray 720p [ukr, eng].
Format :
Format version : Version 2
File size : 2.24 GiB
Duration : 41mn 51s
Overall bit rate : 7 667 Kbps
Encoded date : UTC 2015-03-03 15:52:08
Writing application : v4.9.1 ('Ich will') зібрано Jul 11 2011 23:53:15
Writing library : libebml v1.2.1 + v1.1.1

Video
ID : 1
Format : AVC
Format/Info : Advanced Video Codec
Format profile : [email protected]
Format settings, CABAC : Yes
Format settings, ReFrames : 5 frames
Codec ID : V_MPEG4/ISO/AVC
Duration : 41mn 51s
Bit rate : 5 963 Kbps
Width : 1 280 pixels
Height : 720 pixels
Display aspect ratio : 16:9
Frame rate mode : Constant
Frame rate : 23.976 fps
Color space : YUV
Chroma subsampling : 4:2:0
Bit depth : 8 bits
Scan type : Progressive
Bits/(Pixel*Frame) : 0.270
Stream size : 1.70 GiB (76%)
Writing library : core 115 r1995 c1e60b9
Encoding settings : cabac=1 / ref=5 / deblock=1:0:0 / analyse=0x3:0x113 / me=umh / subme=7 / psy=1 / psy_rd=1.00:0.00 / mixed_ref=1 / me_range=16 / chroma_me=1 / trellis=1 / 8x8dct=1 / cqm=0 / deadzone=21,11 / fast_pskip=0 / chroma_qp_offset=-2 / threads=6 / sliced_threads=0 / nr=0 / decimate=1 / interlaced=0 / bluray_compat=0 / constrained_intra=0 / bframes=3 / b_pyramid=2 / b_adapt=1 / b_bias=0 / direct=1 / weightb=1 / open_gop=0 / weightp=2 / keyint=250 / keyint_min=23 / scenecut=40 / intra_refresh=0 / rc_lookahead=40 / rc=2pass / mbtree=1 / bitrate=5963 / ratetol=1.0 / qcomp=0.60 / qpmin=0 / qpmax=69 / qpstep=4 / cplxblur=20.0 / qblur=0.5 / ip_ratio=1.40 / aq=1:1.00
Language : English
Default : Yes
Forced : No

Audio #1
ID : 2
Format : AC-3
Format/Info : Audio Coding 3
Mode extension : CM (complete main)
Format settings, Endianness : Big
Codec ID : A_AC3
Duration : 41mn 51s
Bit rate mode : Constant
Bit rate : 192 Kbps
Channel(s) : 2 channels
Channel positions : Front: L R
Sampling rate : 48.0 KHz
Compression mode : Lossy
Stream size : 57.5 MiB (3%)
Title : Так Треба Продакшн
Language : Ukrainian
Default : Yes
Forced : No

Audio #2
ID : 3
Format :
Format/Info : Digital Theater Systems
Mode : 16
Format settings, Endianness : Big
Codec ID : A_DTS
Duration : 41mn 51s
Bit rate mode : Constant
Bit rate : 1 509 Kbps
Channel(s) : 6 channels
Channel positions : Front: L C R, Side: L R, LFE
Sampling rate : 48.0 KHz
Bit depth : 24 bits
Compression mode : Lossy
Stream size : 452 MiB (20%)
Language : English
Default : No
Forced : No

Text
ID : 4
Format : UTF-8
Codec ID : S_TEXT/UTF8
Codec ID/Info : UTF-8 Plain Text
Language : English
Default : No
Forced : No
Скріншоти
Сезони 2-4
Якість:
Відео:
кодек:
розмір кадру: 1280 х 720
бітрейт: ~4000 кб/с

Аудіо # 1:
мова: українська
переклад: багатоголосий закадровий
кодек: 2.0
бітрейт: 192 кб/с

Аудіо # 2:
мова: англійська
переклад: оригінал
кодек: 5.1
бітрейт: 384 кб/с
Info
General
Unique ID : 181873670331543685780358402701131804811 (0x88D398436AF1B8D08E6404784550708B)
Complete name : E:\_inbox\torrents\Support\Rookie Blue [720p, Ukr, Eng]\Season 2 ()\rookie blue s02e01 720p [ukr, eng].
Format :
Format version : Version 2
File size : 1.37 GiB
Duration : 41mn 53s
Overall bit rate : 4 695 Kbps
Encoded date : UTC 2015-06-17 07:35:32
Writing application : v4.9.1 ('Ich will') зібрано Jul 11 2011 23:53:15
Writing library : libebml v1.2.1 + v1.1.1

Video
ID : 1
Format : AVC
Format/Info : Advanced Video Codec
Format profile : [email protected]
Format settings, CABAC : No
Format settings, ReFrames : 2 frames
Codec ID : V_MPEG4/ISO/AVC
Duration : 41mn 53s
Bit rate : 3 962 Kbps
Width : 1 280 pixels
Height : 718 pixels
Display aspect ratio : 16:9
Frame rate mode : Constant
Frame rate : 23.976 fps
Color space : YUV
Chroma subsampling : 4:2:0
Bit depth : 8 bits
Scan type : Progressive
Bits/(Pixel*Frame) : 0.180
Stream size : 1.16 GiB (84%)
Language : English
Default : Yes
Forced : No
Color range : Limited
Color primaries : BT.709
Transfer characteristics : BT.709
Matrix coefficients : BT.709

Audio #1
ID : 2
Format : AC-3
Format/Info : Audio Coding 3
Mode extension : CM (complete main)
Format settings, Endianness : Big
Codec ID : A_AC3
Duration : 41mn 53s
Bit rate mode : Constant
Bit rate : 256 Kbps
Channel(s) : 2 channels
Channel positions : Front: L R
Sampling rate : 48.0 KHz
Compression mode : Lossy
Stream size : 76.7 MiB (5%)
Title : Так Треба Продакшн
Language : Ukrainian
Default : Yes
Forced : No

Audio #2
ID : 3
Format : AC-3
Format/Info : Audio Coding 3
Mode extension : CM (complete main)
Format settings, Endianness : Big
Codec ID : A_AC3
Duration : 41mn 53s
Bit rate mode : Constant
Bit rate : 384 Kbps
Channel(s) : 6 channels
Channel positions : Front: L C R, Side: L R, LFE
Sampling rate : 48.0 KHz
Compression mode : Lossy
Stream size : 115 MiB (8%)
Language : English
Default : No
Forced : No
Скріншоти
Джерело озвучення:


Джерело: SgBILko з
Особиста оцінка: 9 - давно не бачив настільки якісне кіно


Золотий реліз (завантажене не впливає на рейтинг)
 Трекер:    Зареєстрований   

Завантажити / скачати серіал українською



відео для новачків



 Зареєстрований:   2016-11-27 19:03
 Розмір:   84.06 GB 
 Оцінка серіалу:   9.9/10 (Голосів: 8)
   
11FrYkT 
Модератор відео


З нами з: 20.02.11
Востаннє: 23.08.19
Повідомлень: 6143

2016-11-27 23:37  
Neytreenor , зробіть скріншоти у форматі РNG
Anonymous 







2016-11-27 23:59  
11FrYkT написано:
Neytreenor , зробіть скріншоти у форматі РNG

Дідько, налаштування чомусь полетіли Sad (1).

Замінив скріншоти.

revutsky_g 
Новенький


З нами з: 20.02.13
Востаннє: 19.08.19
Повідомлень: 2

2017-10-07 18:44  
коли 5 сезон буде???та 6????чи озвучку не збираються робити?
Anonymous 







2017-10-07 19:11  
revutsky_g написано:
коли 5 сезон буде???та 6????чи озвучку не збираються робити?

Канал їх не показував і невідомо чи збирається показувати. Хоча ще не втрачена надія, що таки колись озвучить. Можете їм у facebook нагадати Happy.

vatanuki 
Свій


З нами з: 23.09.11
Востаннє: 23.08.19
Повідомлень: 97

2017-12-09 11:56  
Дякую за роздача уле було б чудово якщо хтось би роздавав*
Anonymous 







2017-12-09 11:59  
vatanuki написано:
було б чудово якщо хтось би роздавав*

Я роздаю, це ви не качаєте Wink (1)

Ваш часовий пояс: GMT + 2 Години

Нова тема   Відповісти