Хлопчик і Чудовисько / Bakemono no Ko (2015) 720p-mini Ukr/Jpn | sub Ukr

Нові коментарі

Нова тема   Відповісти
Автор Повідомлення
ihabi 
Поважний учасник


З нами з: 01.03.13
Востаннє: 07.08.17
Повідомлень: 247

2016-11-27 19:01  
Хлопчик і Чудовисько / Bakemono no Ko (2015) 720p-mini Ukr/Jpn | sub Ukr

Хлопчик і Чудовисько / Bakemono no Ko (2015) 720p-mini Ukr/Jpn | sub Ukr


Жанр: Пригоди, фентезі
Країна: Японія



8.46 (564 голосів)

Кінокомпанія: Studio Chizu
Режисер: Мамору Хосода
Ролі озвучують: Якушьо Коджі - Куматецу, Міядзакі Аой - Кюта у дитинстві, Сометані Шюта - Кюта, Хіросе Судзу - Каеде, Оідзумі Йо - Татара, Лілі Франкі -Хакушюбо, Цугава Масахіко - Соші, Ямаджі Кадзухіро - Іодзен, Курокі Хару - Ічірохіко в дитинстві, Міяно Мамору - Ічірохіко, Ямагучі Каппей - Джіромару

Сюжет:
Нова робота від режисера Хосоди Мамору та студії Studio Chizu, які подарували нам чудову історію "Діти Вовка: Аме та Юкі". Історія фільму розпочинається в стилі Хаяо Міядзакі від студії Ghibli. Дев'ятирічний хлопчик тікає з дому через розлучення батьків і смерть матері, та з центру Токіо випадково потрапляє у світ "Рай для тварин". Фільм спочатку нагадує "Зоотрополіс", але із зовсім іншим сюжетом.


Тривалість: 1 серія: 01:59:06 (цілком серій: Повнометражний Фільм)
Якість:
Відео:
кодек:
розмір кадру: 1280 х 688
бітрейт: 1 490 кб/с

Аудіо # 1:
мова: українська
переклад: багатоголосий закадровий
кодек: FLAC 2.0
бітрейт: 1 382 кб/с

Аудіо # 2:
мова: українська
переклад: багатоголосий закадровий
кодек: 5.1
бітрейт: 448 кб/с

Аудіо # 3:
мова: японська
переклад: оригінал
кодек: 5.1
бітрейт: 282 кб/с

Субтитри:
мова: українська
тип: пререндерні (написи)
формат: *.ass

Субтитри:
мова: українська
тип: програмні (м'які)
формат: *.ass

Переклад та озвучення виконано:
Переклад: bills_spirit
Текст читали: Lomaev - Куматецу, May - Кюта у дитинстві, ihabi - Кюта, May - Каеде, ihabi - Татара, SmooZzzie -Хакушюбо, Snezhniy - Іодзен, Enelira - Ічірохіко в дитинстві, SmooZzzie - Ічірохіко, Korzhik - Джіромару, а також Draga
Робота зі звуком: ihabi, Enelira
Майстеринґ: ihabi
Постер: ihabi, bills_spirit

Джерело: MelodicVoiceStudio
Info
Format :
Format version : Version 4 / Version 2
File size : 3.01 GiB
Duration : 1 h 59 min
Overall bit rate mode : Variable
Overall bit rate : 3 617 kb/s
Movie name : [Blaze077] Bakemono no Ko (1280x688 h264 BD ).
Encoded date : UTC 2016-11-26 14:03:09
Writing application : mkvmerge v9.5.0 ('Quiet Fire') 64bit
Writing library : libebml v1.3.4 + libmatroska v1.4.5
Attachments : arialbi.ttf / calibrib.ttf / ArialRoundedMTProCyr-Bold.otf / arialbd.ttf / Cabin-Bold.otf / Cabin-BoldItalic.otf / calibrib.ttf / VestaPro-Bold.otf / VestaPro-BoldItalic.otf / arialbd.ttf / Franklin Gothic Medium.ttf / LT_CorinthianMedium.ttf / Merienda One.ttf

Video
ID : 5
Format : AVC
Format/Info : Advanced Video Codec
Format profile : High [email protected]
Format settings, CABAC : Yes
Format settings, ReFrames : 5 frames
Codec ID : V_MPEG4/ISO/AVC
Duration : 1 h 59 min
Bit rate : 1 490 kb/s
Width : 1 280 pixels
Height : 688 pixels
Display aspect ratio : 1.85:1
Frame rate mode : Constant
Frame rate : 23.976 (24000/1001) FPS
Color space : YUV
Chroma subsampling : 4:2:0
Bit depth : 10 bits
Scan type : Progressive
Bits/(Pixel*Frame) : 0.071
Stream size : 1.24 GiB (41%)
Writing library : core 148 r2638 7599210
Encoding settings : cabac=1 / ref=5 / deblock=1:1:1 / analyse=0x3:0x133 / me=umh / subme=10 / psy=1 / psy_rd=0.40:0.00 / mixed_ref=1 / me_range=24 / chroma_me=1 / trellis=2 / 8x8dct=1 / cqm=0 / deadzone=21,11 / fast_pskip=1 / chroma_qp_offset=-2 / threads=12 / lookahead_threads=3 / sliced_threads=0 / nr=0 / decimate=1 / interlaced=0 / bluray_compat=0 / constrained_intra=0 / bframes=16 / b_pyramid=2 / b_adapt=2 / b_bias=0 / direct=3 / weightb=1 / open_gop=0 / weightp=2 / keyint=240 / keyint_min=23 / scenecut=40 / intra_refresh=0 / rc_lookahead=60 / rc=crf / mbtree=1 / crf=19.8 / qcomp=0.80 / qpmin=10 / qpmax=51 / qpstep=4 / vbv_maxrate=300000 / vbv_bufsize=300000 / crf_max=0.0 / nal_hrd=none / filler=0 / ip_ratio=1.40 / aq=1:0.60
Default : Yes
Forced : No

Audio #1
ID : 1
Format : FLAC
Format/Info : Free Lossless Audio Codec
Codec ID : A_FLAC
Duration : 1 h 59 min
Bit rate mode : Variable
Bit rate : 1 382 kb/s
Channel(s) : 2 channels
Channel positions : Front: L R
Sampling rate : 48.0 kHz
Frame rate : 11.719 FPS (4096 spf)
Bit depth : 24 bits
Stream size : 1.15 GiB (38%)
Title : MVS 2.0
Writing library : libFLAC 20080709 (UTC 2008-07-09)
Language : Ukrainian
Default : Yes
Forced : Yes

Audio #2
ID : 2
Format : AC-3
Format/Info : Audio Coding 3
Mode extension : CM (complete main)
Format settings, Endianness : Big
Codec ID : A_AC3
Duration : 1 h 59 min
Bit rate mode : Constant
Bit rate : 448 kb/s
Channel(s) : 6 channels
Channel positions : Front: L C R, Side: L R, LFE
Sampling rate : 48.0 kHz
Frame rate : 31.250 FPS (1536 spf)
Bit depth : 16 bits
Compression mode : Lossy
Stream size : 382 MiB (12%)
Title : MVS 5.1
Language : Ukrainian
Default : No
Forced : No

Audio #3
ID : 6
Format :
Format/Info : Advanced Audio Codec
Format profile : LC
Codec ID : A_AAC
Duration : 1 h 59 min
Bit rate : 282 kb/s
Channel(s) : 6 channels
Channel positions : Front: L C R, Side: L R, LFE
Sampling rate : 48.0 kHz
Frame rate : 46.875 FPS (1024 spf)
Compression mode : Lossy
Delay relative to video : 9 ms
Скріншоти






Звук 5.1 та 2.0 на вибір.
При проблемах зі звуком пишіть в коментарях - виправимо.

1080p


Особиста оцінка: 10 - без зайвих вагань рекомендую всім!


Авторський реліз (завантажувати можна без реєстрації)
 Трекер:    Зареєстрований   

Завантажити / скачати аніме українською



відео для новачків



 Зареєстрований:   2016-11-27 19:01
 Розмір:   3.01 GB 
 Оцінка аніме:   9.8/10 (Голосів: 5)
   
Ваш часовий пояс: GMT + 2 Години

Нова тема   Відповісти