Хлопчик і Чудовисько / Bakemono no Ko (2015) 1080p Ukr/Jpn | sub Ukr

Нові коментарі

Нова тема   Відповісти
Автор Повідомлення
ihabi 
Поважний учасник


З нами з: 01.03.13
Востаннє: 07.08.17
Повідомлень: 247

2016-11-26 18:54  
Хлопчик і Чудовисько / Bakemono no Ko (2015) 1080p Ukr/Jpn | sub Ukr

Хлопчик і Чудовисько / Bakemono no Ko (2015) 1080p Ukr/Jpn | sub Ukr


Жанр: Пригоди, фентезі
Країна: Японія



8.46 (564 голосів)

Кінокомпанія: Studio Chizu
Режисер: Мамору Хосода
Ролі озвучують: Якушьо Коджі - Куматецу, Міядзакі Аой - Кюта у дитинстві, Сометані Шюта - Кюта, Хіросе Судзу - Каеде, Оідзумі Йо - Татара, Лілі Франкі -Хакушюбо, Цугава Масахіко - Соші, Ямаджі Кадзухіро - Іодзен, Курокі Хару - Ічірохіко в дитинстві, Міяно Мамору - Ічірохіко, Ямагучі Каппей - Джіромару

Сюжет:
Нова робота від режисера Хосоди Мамору та студії Studio Chizu, які подарували нам чудову історію "Діти Вовка: Аме та Юкі". Історія фільму розпочинається в стилі Хаяо Міядзакі від студії Ghibli. Дев'ятирічний хлопчик тікає з дому через розлучення батьків і смерть матері, та з центру Токіо випадково потрапляє у світ "Рай для тварин". Фільм спочатку нагадує "Зоотрополіс", але із зовсім іншим сюжетом.


Тривалість: 1 серія: 01:59:05 (цілком серій: Повнометражний Фільм)
Якість:
Відео:
кодек:
розмір кадру: 1920 х 1080
бітрейт: 3 853 кб/с

Аудіо # 1:
мова: українська
переклад: багатоголосий закадровий
кодек: FLAC 2.0
бітрейт: 1 382 кб/с

Аудіо # 2:
мова: українська
переклад: багатоголосий закадровий
кодек: 5.1
бітрейт: 448 кб/с

Аудіо # 3:
мова: японська
переклад: оригінал
кодек: FLAC 5.1
бітрейт: 3 598 кб/с

Аудіо # 4:
мова: японська
переклад: оригінал
кодек: FLAC 2.0
бітрейт: 643 кб/с

Субтитри:
мова: українська
тип: пререндерні (написи)
формат: *.ass

Субтитри:
мова: українська
тип: програмні (м'які)
формат: *.ass

Переклад та озвучення виконано:
Переклад: bills_spirit
Текст читали: Lomaev - Куматецу, May - Кюта у дитинстві, ihabi - Кюта, May - Каеде, ihabi - Татара, SmooZzzie -Хакушюбо, Snezhniy - Іодзен, Enelira - Ічірохіко в дитинстві, SmooZzzie - Ічірохіко, Korzhik - Джіромару, а також Draga
Робота зі звуком: ihabi, Enelira
Майстеринґ: ihabi
Постер: ihabi, bills_spirit

Джерело: MelodicVoiceStudio
Info
Format :
Format version : Version 4 / Version 2
File size : 8.26 GiB
Duration : 1 h 59 min
Overall bit rate mode : Variable
Overall bit rate : 9 929 kb/s
Encoded date : UTC 2016-11-26 13:16:28
Writing application : mkvmerge v9.5.0 ('Quiet Fire') 64bit
Writing library : libebml v1.3.4 + libmatroska v1.4.5
Attachments : arialbi.ttf / calibrib.ttf / ArialRoundedMTProCyr-Bold.otf / arialbd.ttf

Video
ID : 1
Format : AVC
Format/Info : Advanced Video Codec
Format profile : High [email protected]
Format settings, CABAC : Yes
Format settings, ReFrames : 12 frames
Codec ID : V_MPEG4/ISO/AVC
Duration : 1 h 59 min
Bit rate : 3 853 kb/s
Width : 1 920 pixels
Height : 1 080 pixels
Display aspect ratio : 16:9
Frame rate mode : Constant
Frame rate : 23.976 (24000/1001) FPS
Color space : YUV
Chroma subsampling : 4:2:0
Bit depth : 10 bits
Scan type : Progressive
Bits/(Pixel*Frame) : 0.077
Stream size : 3.20 GiB (39%)
Writing library : core 146 r2538M 121396c
Encoding settings : cabac=1 / ref=12 / deblock=1:1:0 / analyse=0x3:0x113 / me=umh / subme=8 / psy=1 / fade_compensate=0.00 / psy_rd=0.40:0.00 / mixed_ref=1 / me_range=32 / chroma_me=1 / trellis=2 / 8x8dct=1 / cqm=0 / deadzone=21,11 / fast_pskip=1 / chroma_qp_offset=-2 / threads=12 / lookahead_threads=2 / sliced_threads=0 / nr=0 / decimate=1 / interlaced=0 / bluray_compat=0 / constrained_intra=0 / bframes=9 / b_pyramid=2 / b_adapt=1 / b_bias=0 / direct=1 / weightb=1 / open_gop=0 / weightp=2 / keyint=250 / keyint_min=23 / scenecut=40 / intra_refresh=0 / rc_lookahead=70 / rc=crf / mbtree=1 / crf=19.5 / qcomp=0.60 / qpmin=0 / qpmax=81 / qpstep=4 / ip_ratio=1.40 / aq=1:0.60
Language : Japanese
Default : Yes
Forced : No
Color range : Limited
Matrix coefficients : BT.709

Audio #1
ID : 2
Format : FLAC 2.0
Format/Info : Free Lossless Audio Codec
Codec ID : A_FLAC
Duration : 1 h 59 min
Bit rate mode : Variable
Bit rate : 1 382 kb/s
Channel(s) : 2 channels
Channel positions : Front: L R
Sampling rate : 48.0 kHz
Frame rate : 11.719 FPS (4096 spf)
Bit depth : 24 bits
Stream size : 1.15 GiB (14%)
Title : MVS 2.0
Writing library : libFLAC 20080709 (UTC 2008-07-09)
Language : Ukrainian
Default : Yes
Forced : Yes

Audio #2
ID : 3
Format : AC-3
Format/Info : Audio Coding 3
Mode extension : CM (complete main)
Format settings, Endianness : Big
Codec ID : A_AC3
Duration : 1 h 59 min
Bit rate mode : Constant
Bit rate : 448 kb/s
Channel(s) : 6 channels
Channel positions : Front: L C R, Side: L R, LFE
Sampling rate : 48.0 kHz
Frame rate : 31.250 FPS (1536 spf)
Bit depth : 16 bits
Compression mode : Lossy
Stream size : 382 MiB (5%)
Title : MVS 5.1
Language : Ukrainian
Default : No
Forced : No

Audio #3
ID : 4
Format : FLAC 5.1
Format/Info : Free Lossless Audio Codec
Codec ID : A_FLAC
Duration : 1 h 59 min
Bit rate mode : Variable
Bit rate : 3 598 kb/s
Channel(s) : 6 channels
Channel positions : Front: L C R, Side: L R, LFE
Sampling rate : 48.0 kHz
Frame rate : 11.719 FPS (4096 spf)
Bit depth : 24 bits
Stream size : 2.99 GiB (36%)
Title : Jpn 5.1
Writing library : libFLAC 1.2.1 (UTC 2007-09-17)
Language : Japanese
Default : No
Forced : No

Audio #4
ID : 5
Format : FLAC 2.0
Format/Info : Free Lossless Audio Codec
Codec ID : A_FLAC
Duration : 1 h 59 min
Bit rate mode : Variable
Bit rate : 643 kb/s
Channel(s) : 2 channels
Channel positions : Front: L R
Sampling rate : 48.0 kHz
Frame rate : 11.719 FPS (4096 spf)
Bit depth : 16 bits
Stream size : 548 MiB (6%)
Title : Jpn 2.0
Writing library : libFLAC 1.2.1 (UTC 2007-09-17)
Language : Japanese
Default : No
Forced : No

Text #1
ID : 6
Format : ASS
Codec ID : S_TEXT/ASS
Codec ID/Info : Advanced Sub Station Alpha
Duration : 1 h 59 min
Bit rate : 21 b/s
Count of elements : 103
Compression mode : Lossless
Stream size : 18.3 KiB (0%)
Title : Forced
Language : Ukrainian
Default : Yes
Forced : Yes

Text #2
ID : 7
Format : ASS
Codec ID : S_TEXT/ASS
Codec ID/Info : Advanced Sub Station Alpha
Duration : 1 h 59 min
Bit rate : 202 b/s
Count of elements : 1901
Compression mode : Lossless
Stream size : 176 KiB (0%)
Title : Bils_spirit
Default : No
Forced : No
Скріншоти






Звук 5.1 та 2.0 на вибір.
При проблемах зі звуком пишіть в коментарях - виправимо.

720p

Особиста оцінка: 10 - без зайвих вагань рекомендую всім!


Авторський реліз (завантажувати можна без реєстрації)
 Трекер:    Зареєстрований   

Завантажити / скачати аніме українською



відео для новачків



 Зареєстрований:   2016-11-26 21:06
 Розмір:   8.26 GB 
 Оцінка аніме:   9.5/10 (Голосів: 8)
   
ihabi 
Поважний учасник


З нами з: 01.03.13
Востаннє: 07.08.17
Повідомлень: 247

2016-11-26 21:08  

Торрент-файл оновлений, видалені зайві файли. Прохання перезавантажити і перерахувати хеш.

ros21 
Свій


З нами з: 14.01.11
Востаннє: 22.08.17
Повідомлень: 61

2016-11-27 16:06  
В меншому розмірі можна? Дякую
ihabi 
Поважний учасник


З нами з: 01.03.13
Востаннє: 07.08.17
Повідомлень: 247

2016-11-27 16:53  
ros21
Можна сьогодні буде

EvGaS 
Відео Гуртом - підтримка та поширення
Відео Гуртом - підтримка та поширення


З нами з: 27.02.12
Востаннє: 23.08.17
Повідомлень: 3377

2016-12-24 13:30  
Не сподобалось і швидко закинув перегляд. Крута графіка, але надто спрощене під дітей (деяке змалювання персонажів, те як побудовані діалоги/подіі сценаристами, наприклад пояснення смертей через автоаварії таке ж витончене, як і цеглина). На відміну від чимось схожого Кунг Фу Панди — якось немає чогось цікавого для старших. Тобто, це примітивна казочка з гарною обгорткою. Паралелі з Зоотрополісом… ну, так можна взагалі багато з чим порівняти, все на стандартизованих рейках, просто він нещодавно вийшов, от і порівняли. (сама історія Зоотрополіса не є чимось винайденим чи новим, головне що там все дуже гарно обіграли)

Категорія — дітям десь до 11-13 років, гадаю.

Ну і постійно дістає висяче лого в субтитрах.

Ваш часовий пояс: GMT + 2 Години

Нова тема   Відповісти