Мій улюблений марсіанин / My Favorite Martian (1999) 720p Ukr/Eng | Sub Ukr/Eng

Нові коментарі

Нова тема   Відповісти
Автор Повідомлення
Anonymous 







2016-11-25 17:29  
Мій улюблений марсіанин / My Favorite Martian (1999) 720p Ukr/Eng | Sub Ukr/Eng



Жанр: комедія, сімейний, науково-фантастичний
Країна: США



Кінокомпанія: Walt Disney Pictures
Режисер: Дональд Петрі
Актори: Джефф Деніелс, Крістофер Ллойд, Воллес Шон, Елізабет Герлі, Майкл Лернер, Деріл Ганна

Сюжет:
Веселощі почалися в той день, коли репортер Тім О`Хара натрапив на марсіанина, який щойно здійснив вимушену посадку на землю. Зрозумівши, що в його руки потрапив найсенсаційніший матеріал за всю історію людства, Тім замишляє викрити марсіанина, який прийняв людську подобу під ім'ям «дядька Мартіна».


Тривалість: 01:33:52
Якість:
Відео:
кодек:
розмір кадру: 1280 х 688
бітрейт: 4044 кб/с

Аудіо:
мова: українська
переклад: багатоголосий закадровий LeDoyen
кодек: 2.0
бітрейт: 192 кб/с
Інформація про озвучення

Переклад: Олесі Запісочної
Режисер: Людмила Ардельян
Звукорежисер: Михайло Угрин
Ролі озвучили: Дмитро Завадський, Володимир Паляниця, Людмила Ардельян, Олена Борозенець, Володимир Кокотунов, Максим Кондратюк.
Фільм озвучено студією LeDoyen.
Аудіо:
мова: англійська
переклад: оригінал
кодек: 5.1
бітрейт: 384 кб/с

Субтитри:
мова: українська
тип: програмні (м'які)
формат: *.srt

Субтитри:
мова: аглійська
тип: програмні (м'які)
формат: *.srt
Info
Complete name : E:\My Favorite Martian 1999_WEB-DL 720p[UKR_ENG] [Hurtom].
Format :
Format version : Version 4 / Version 2
File size : 3.03 GiB
Duration : 1 h 33 min
Overall bit rate : 4 621 kb/s
Movie name : My Favorite Martian (1999) - Release for HDCLUB
Encoded date : UTC 2018-06-17 07:02:16
Writing application : v22.0.0 ('At The End Of The World') 64-bit
Writing library : libebml v1.3.5 + v1.4.8
Cover : Yes
Attachments : cover.png

Video
ID : 1
Format : AVC
Format/Info : Advanced Video Codec
Format profile : [email protected]
Format settings, CABAC : No
Format settings, RefFrames : 2 frames
Codec ID : V_MPEG4/ISO/AVC
Duration : 1 h 33 min
Bit rate : 4 044 kb/s
Width : 1 280 pixels
Height : 688 pixels
Display aspect ratio : 1.85:1
Frame rate mode : Constant
Frame rate : 23.976 (23976/1000) FPS
Color space : YUV
Chroma subsampling : 4:2:0
Bit depth : 8 bits
Scan type : Progressive
Bits/(Pixel*Frame) : 0.192
Stream size : 2.65 GiB (88%)
Title : My.Favorite.Martian.1999..720p
Language : English
Default : Yes
Forced : No
Color range : Limited
Color primaries : BT.709
Transfer characteristics : BT.709
Matrix coefficients : BT.709

Audio #1
ID : 2
Format : AC-3
Format/Info : Audio Coding 3
Format settings, Endianness : Big
Codec ID : A_AC3
Duration : 1 h 33 min
Bit rate mode : Constant
Bit rate : 192 kb/s
Channel(s) : 2 channels
Channel positions : Front: L R
Sampling rate : 48.0 kHz
Frame rate : 31.250 FPS (1536 SPF)
Bit depth : 16 bits
Compression mode : Lossy
Stream size : 129 MiB (4%)
Title : 2.0 @ 192 kbps - MVO, LeDoyen
Language : Ukrainian
Service kind : Complete Main
Default : Yes
Forced : Yes

Audio #2
ID : 3
Format : AC-3
Format/Info : Audio Coding 3
Format settings, Endianness : Big
Codec ID : A_AC3
Duration : 1 h 33 min
Bit rate mode : Constant
Bit rate : 384 kb/s
Channel(s) : 6 channels
Channel positions : Front: L C R, Side: L R, LFE
Sampling rate : 48.0 kHz
Frame rate : 31.250 FPS (1536 SPF)
Bit depth : 16 bits
Compression mode : Lossy
Stream size : 257 MiB (8%)
Title : Original
Language : English
Service kind : Complete Main
Default : No
Forced : No

Text #1
ID : 4
Format : UTF-8
Codec ID : S_TEXT/UTF8
Codec ID/Info : UTF-8 Plain Text
Duration : 1 h 27 min
Bit rate : 126 b/s
Count of elements : 1417
Stream size : 80.7 KiB (0%)
Title : iTunse
Language : Ukrainian
Default : Yes
Forced : Yes

Text #2
ID : 5
Format : UTF-8
Codec ID : S_TEXT/UTF8
Codec ID/Info : UTF-8 Plain Text
Duration : 1 h 27 min
Bit rate : 81 b/s
Count of elements : 1473
Stream size : 52.6 KiB (0%)
Title : SDH
Language : English
Default : No
Forced : No

Menu
00:00:00.000 : en:1. Program Start
00:00:22.000 : en:2. Mars Probe Mission/Main Title
00:01:43.000 : en:3. KGSC Santa Barbara
00:04:35.000 : en:4. T Minus 5
00:08:13.000 : en:5. Crash Landing
00:14:00.000 : en:6. An Unexpected Visitor
00:21:33.000 : en:7. A Rude Awakening For Tim
00:27:34.000 : en:8. Shopping With Uncle Martin
00:34:53.000 : en:9. Martin Needs Nourishment
00:39:52.000 : en:10. Home Movies
00:48:35.000 : en:11. Going to Pieces
00:56:56.000 : en:12. Don't Send Us to the Shrink
00:58:56.000 : en:13. The Story of the Century
01:04:16.000 : en:14. Rummage Sale Bound
01:06:28.000 : en:15. Down the Drain
01:10:22.000 : en:16. Captured
01:13:38.000 : en:17. Zoot to the Rescue
01:17:24.000 : en:18. The Escape
01:25:34.000 : en:19. Martin Defects
01:27:48.000 : en:20. End Credits
Скріншоти








Подяка: Electroz за доріжку, синхронізацію та підготовку релізу.
Особиста оцінка: Не дивився.


Срібний реліз (на рейтинг впливає 50% завантаженого)
 Трекер:    Зареєстрований   

Завантажити / скачати фільм українською



відео для новачків



 Зареєстрований:   2018-06-17 10:16
 Розмір:   3.03 GB 
 Оцінка фільму:   10/10 (Голосів: 19)
   
Qui-Gon 
Свій


З нами з: 01.02.09
Востаннє: 24.09.20
Повідомлень: 56

2016-11-26 20:58  
А буде наша звукова доріжка? Його ж колись по 1+1 транслювали
Electroz 
Відео Гуртом - підтримка та поширення
Відео Гуртом - підтримка та поширення


З нами з: 18.09.14
Востаннє: 26.09.20
Повідомлень: 4025

2018-05-26 14:28  
del
Anonymous 







2018-06-17 10:23  
Додано українську доріжку, англійські субтитри, замінено англійську доріжку на 6 - канальну.

Ваш часовий пояс: GMT + 2 Години

Нова тема   Відповісти