Марс (Сезон 1) / Mars (Season 1) (2016) 720p Ukr/Eng | Sub Eng

Нові коментарі

Нова тема   Відповісти
Автор Повідомлення
krigg070 
Відео Гуртом - фільмокрай
Відео Гуртом - фільмокрай


З нами з: 29.10.14
Востаннє: 12.12.17
Повідомлень: 976

2016-11-24 19:27  
Марс (Сезон 1) / Mars (Season 1) (2016) 720p Ukr/Eng | Sub Eng


Жанр: пригодницький, драма, фантастика, документальний
Країна: США



Кінокомпанія: National Geographic
Режисер: Еверардо Ґоут / Everardo Gout
Актори: Альберто Аман / Alberto Ammann, Бен Котон / Ben Cotton, Ката Сарбо / Kata Sarbó та інші.

Сюжет:
2033 рік. Перший політ на Марс. На Червону планету відправляють пару американців, одного нігерійця, одну росіянку, одну француженку і одного іспанця.
Рушайте в першу подорож на Марс в 2033 році. Поєднання драми та документалістики в одному захоплюючому серіалі про спробу зробити Марс нашою домівкою.
Перелік серій
    Mars. Season 1, Episode 01. Novo Mundo
    Mars. Season 1, Episode 02. Grounded
    Mars. Season 1, Episode 03. Pressure Drop
    Mars. Season 1, Episode 04. Power
    Mars. Season 1, Episode 05. Darkest Days
    Mars. Season 1, Episode 06. Crossroads
    Mars. Season 1, Episode 07. Making Mars
Тривалість: ~ 47 хв. (всього серій: 7)
Якість: 720p
Відео:
кодек:
розмір кадру: 1280 х 718
бітрейт: ~4 061 кб/с

Аудіо # 1:
мова: українська
переклад: багатоголосий закадровий
кодек: 2.0
бітрейт: 192 кб/с

Аудіо # 2:
мова: англійська
переклад: оригінал
кодек: 5.1
бітрейт: 384 кб/с

Субтитри:
мова: англійська
тип: програмні (м'які)
формат: *.srt
Скріншоти
Info
Код:
Video
ID                             : 1
Format                         : AVC
Format/Info                    : Advanced Video Codec
Format profile                 : [email protected]
Format settings, CABAC         : No
Format settings, ReFrames      : 2 frames
Codec ID                       : V_MPEG4/ISO/AVC
Duration                       : 47mn 16s
Bit rate                       : 4 061 Kbps
Width                          : 1 280 pixels
Height                         : 718 pixels
Display aspect ratio           : 16:9
Frame rate mode                : Constant
Frame rate                     : 23.976 (24000/1001) fps
Color space                    : YUV
Chroma subsampling             : 4:2:0
Bit depth                      : 8 bits
Scan type                      : Progressive
Bits/(Pixel*Frame)             : 0.184
Stream size                    : 1.34 GiB (88%)
Language                       : English
Default                        : Yes
Forced                         : No
Color range                    : Limited
Color primaries                : BT.709
Transfer characteristics       : BT.709
Matrix coefficients            : BT.709

Audio #1
ID                             : 2
Format                         : AC-3
Format/Info                    : Audio Coding 3
Mode extension                 : CM (complete main)
Format settings, Endianness    : Big
Codec ID                       : A_AC3
Duration                       : 47mn 16s
Bit rate mode                  : Constant
Bit rate                       : 192 Kbps
Channel(s)                     : 2 channels
Channel positions              : Front: L R
Sampling rate                  : 48.0 KHz
Frame rate                     : 31.250 fps (1536 spf)
Compression mode               : Lossy
Stream size                    : 64.9 MiB (4%)
Title                          : 2.0 @ 192 kbps - NGC
Language                       : Ukrainian
Default                        : Yes
Forced                         : No

Audio #2
ID                             : 3
Format                         : AC-3
Format/Info                    : Audio Coding 3
Mode extension                 : CM (complete main)
Format settings, Endianness    : Big
Codec ID                       : A_AC3
Duration                       : 47mn 16s
Bit rate mode                  : Constant
Bit rate                       : 384 Kbps
Channel(s)                     : 6 channels
Channel positions              : Front: L C R, Side: L R, LFE
Sampling rate                  : 48.0 KHz
Frame rate                     : 31.250 fps (1536 spf)
Compression mode               : Lossy
Stream size                    : 130 MiB (8%)
Title                          : 5.1 @ 384 kbps - Original
Language                       : English
Default                        : No
Forced                         : No

Text
ID                             : 4
Format                         : UTF-8
Codec ID                       : S_TEXT/UTF8
Codec ID/Info                  : UTF-8 Plain Text
Duration                       : 46mn 9s
Bit rate                       : 61 bps
Count of elements              : 595
Stream size                    : 20.9 KiB (0%)
Title                          : Full
Language                       : English
Default                        : No
Forced                         : No
Джерела та подяки: , запис звуку - Sando7; зведення - krigg070; постер - Gelios.



Бронзовий реліз (на рейтинг впливає 75% завантаженого)
 Трекер:    Зареєстрований   

Завантажити / скачати фільм українською



відео для новачків



 Зареєстрований:   2016-12-26 15:36
 Розмір:   10.66 GB 
 Оцінка фільму:   9.8/10 (Голосів: 22)
   
krigg070 
Відео Гуртом - фільмокрай
Відео Гуртом - фільмокрай


З нами з: 29.10.14
Востаннє: 12.12.17
Повідомлень: 976

2016-11-29 21:18  
+ 3 серія
casper101 
Поважний учасник


З нами з: 03.12.09
Востаннє: 12.12.17
Повідомлень: 240

2016-12-14 16:15  
скільки поний сезон матиме серій.
igor911 
Відео Гуртом
Відео Гуртом


З нами з: 18.01.08
Востаннє: 12.12.17
Повідомлень: 8477

2016-12-15 01:33  
casper101 уважніше
krigg070 написано:
всього серій: 6

Drool 
VIP


З нами з: 17.04.10
Востаннє: 12.12.17
Повідомлень: 1411

2016-12-23 08:19  
Шановний релізере, а де крайні епізоди, 6-й та 7-й?
krigg070 
Відео Гуртом - фільмокрай
Відео Гуртом - фільмокрай


З нами з: 29.10.14
Востаннє: 12.12.17
Повідомлень: 976

2016-12-26 15:38  
+ 6-7 епізоди
taraso23 
Частий відвідувач


З нами з: 29.12.12
Востаннє: 12.12.17
Повідомлень: 33

2017-01-14 18:32  
В 7 серії немає субтитрів(
Dimax2 
Новенький


З нами з: 04.03.17
Востаннє: 09.12.17
Повідомлень: 4

2017-03-05 02:00  
мамо я вдома.
дякую

Ваш часовий пояс: GMT + 2 Години

Нова тема   Відповісти