Поліція Чикаго (Сезон 1, Серії 1-12) / Chicago P.D. (Season 1, Series 1-12) (2014) 720p Ukr/Eng | sub Eng

Нові коментарі

Нова тема   Відповісти
Автор Повідомлення
Anonymous 







2016-11-20 14:44  

1-й сезон | AVC | 720p


Поліція Чикаго (Сезон 1, Серії 1-12) / Chicago P.D. (Season 1, Series 1-12) (2014) 720p Ukr/Eng | sub Eng

Поліція Чикаго (Сезон 1, Серії 1-12) / Chicago P.D. (Season 1, Series 1-12) (2014) 720p Ukr/Eng | sub Eng

Жанр: екшн, кримінальний, бойовик, драма
Країна: США


Кінокомпанія: Wolf Films, Universal Television
Режисер: Майкл Брандт (Michael Brandt), Дерек Хаас (Derek Haas), Метт Олмстед (Matt Olmstead)
Актори: Джейсон Бех (Jason Beghe), Софія Буш (Sophia Bush), Джессі Лі Соффер (Jesse Lee Soffer), Патрік Флугер (Patrick Flueger), Джон Седа (Jon Seda), Ларойс Хоукінс (LaRoyce Hawkins), Маріна Скверсьяті (Marina Squerciati), Арчі Као (Archie Kao), Еліас Котеас (Elias Koteas)

Сюжет:
Серіал розповідає про роботу поліцейського департаменту міста Чикаго, а зокрема про дві команди, покликання яких охороняти закон і порядок, але при цьому наділені абсолютно різними повноваженнями. Злочини у мегаполісі відбуваються кожен день, і серед них виявляються дуже заплутані і складні справи, впоратися з якими можуть тільки справжні професіонали. Цими професіоналами і є члени обох команд, кожен з яких виконує певні обов'язки, допомагаючи своїм колегам. Завдяки їх навичкам і вмінням, а також досить нестандартним рішенням, поліції вдається затримувати небезпечних і винахідливих злочинців, які в підсумку отримують заслужене покарання...

Серіал є спін-оффом шоу Пожежники Чикаго (Chicago Fire).


Тривалість: 1 серія: 43:00 (цілком серій: 12)
Перелік серій
01. Stepping Stone
02. Wrong Side of the Bars
03. Chin Check
04. Now Is Always Temporary
05. Thirty Balloons
06. Conventions
07. The Price We Pay
08. Different Mistakes
09. A Material Witness
10. At Least It's Justice
11. Turn the Light Off
12. 8:30 PM
13. My Way - відсутня
14. The Docks - відсутня
15. A Beautiful Friendship - відсутня
Якість:
Відео:
кодек:
розмір кадру: 1280 х 720
бітрейт: ~4000 кб/с

Аудіо # 1:
мова: українська
переклад: багатоголосий закадровий
кодек: 2.0
бітрейт: 192 кб/с

Аудіо # 2:
мова: англійська
переклад: оригінал
кодек: 5.1
бітрейт: 384 кб/с

Джерело озвучення:
, запис з каналу Індіго TV

Субтитри:
мова: англійська
тип: програмні (м'які)
формат: *.srt
Info
General
Unique ID : 219582654617249879817077971016248011163 (0xA53214BB133CAA909C5FFDC2C4C1299B)
Complete name : E:\_inbox\torrents\Support\Chicago P.D. (Season 1) [, 720p, Ukr, Eng]\01. Stepping Stone.
Format :
Format version : Version 4 / Version 2
File size : 1.40 GiB
Duration : 42mn 59s
Overall bit rate : 4 676 Kbps
Encoded date : UTC 2016-10-29 14:45:27
Writing application : v9.5.0 ('Quiet Fire') 64bit
Writing library : libebml v1.3.4 + v1.4.5
DURATION : 00:42:59.936000000
NUMBER_OF_FRAMES : 80623
NUMBER_OF_BYTES : 61918464
_STATISTICS_WRITING_APP : v9.5.0 ('Quiet Fire') 64bit
_STATISTICS_WRITING_DATE_UT : 2016-10-29 14:45:27
_STATISTICS_TAGS : BPS DURATION NUMBER_OF_FRAMES NUMBER_OF_BYTES

Video
ID : 1
Format : AVC
Format/Info : Advanced Video Codec
Format profile : [email protected]
Format settings, CABAC : No
Format settings, ReFrames : 2 frames
Codec ID : V_MPEG4/ISO/AVC
Duration : 42mn 59s
Bit rate : 4 007 Kbps
Width : 1 280 pixels
Height : 720 pixels
Display aspect ratio : 16:9
Frame rate mode : Constant
Frame rate : 23.976 fps
Color space : YUV
Chroma subsampling : 4:2:0
Bit depth : 8 bits
Scan type : Progressive
Bits/(Pixel*Frame) : 0.181
Stream size : 1.20 GiB (86%)
Language : English
Default : Yes
Forced : No
Color range : Limited
Color primaries : BT.709
Transfer characteristics : BT.709
Matrix coefficients : BT.709

Audio #1
ID : 2
Format : AC-3
Format/Info : Audio Coding 3
Mode extension : CM (complete main)
Format settings, Endianness : Big
Codec ID : A_AC3
Duration : 42mn 59s
Bit rate mode : Constant
Bit rate : 192 Kbps
Channel(s) : 2 channels
Channel positions : Front: L R
Sampling rate : 48.0 KHz
Compression mode : Lossy
Stream size : 59.1 MiB (4%)
Language : Ukrainian
Default : Yes
Forced : No

Audio #2
ID : 3
Format : AC-3
Format/Info : Audio Coding 3
Mode extension : CM (complete main)
Format settings, Endianness : Big
Codec ID : A_AC3
Duration : 42mn 59s
Bit rate mode : Constant
Bit rate : 384 Kbps
Channel(s) : 6 channels
Channel positions : Front: L C R, Side: L R, LFE
Sampling rate : 48.0 KHz
Compression mode : Lossy
Stream size : 118 MiB (8%)
Language : English
Default : No
Forced : No

Text
ID : 4
Format : UTF-8
Codec ID : S_TEXT/UTF8
Codec ID/Info : UTF-8 Plain Text
Language : English
Default : No
Forced : No
Скріншоти

За запис з ТБ дякую POMEO та drakon87

Джерело: &
Особиста оцінка: 0 - не дивився


Бронзовий реліз (на рейтинг впливає 75% завантаженого)
 Трекер:    Зареєстрований   

Завантажити / скачати серіал українською



відео для новачків



 Зареєстрований:   2016-11-20 14:44
 Розмір:   16.79 GB 
 Оцінка серіалу:   10/10 (Голосів: 3)
   
Ваш часовий пояс: GMT + 2 Години

Нова тема   Відповісти