Вовченя (Сезон 2) / Teen Wolf (Season 2) (2012) 720p Ukr/Eng

Нові коментарі

Нова тема   Відповісти
Автор Повідомлення
Anonymous 







2016-11-20 12:36  
Вовченя (Сезон 2) / Teen Wolf (Season 2) (2012) 720p Ukr/Eng

Вовченя (Сезон 2) / Teen Wolf (Season 2) (2012) 720p Ukr/Eng


Жанр: бойовик, драма, комедія, фантастика, жахи, трилер, романтичний
Країна: США



Кінокомпанія: MGM Television, Music Television (MTV)
Режисер: Расселл Малкахі (Russell Mulcahy)
Актори: Тайлер Поузі (Tyler Posey), Крістал Рід (Crystal Reed), Ділан О'Брайен (Dylan O'Brien), Тайлер Хьохлін (Tyler Hoechlin) та інші

Сюжет:
Тут на хлопця напала незрозуміла істота, яка вразила його своїми величезними розмірами. Тварина вкусила Скотта. З цього моменту у героя почалося нове життя. Він розуміє, що з його організмом трапилося щось дивне. Ось тільки що саме, хлопець зрозуміти так і не зміг. Молодий чоловік почав за собою помічати, що він набагато швидше рухається, його рани заживають за мінімальну кількість часу, зміни відбулися і з рефлекторною сторони. Такі зміни сильно лякають Скотта. Йому необхідно навчитися володіти і правильно використовувати придбані можливості.


Тривалість: 1 серія: 41:00 (цілком серій: 12)
Перелік серій
01. Omega
02. Shape Shifted
03. Ice Pick
04. Abomination
05. Venomous
06. Frenemy
07. Restraint
08. Raving
09. Party Guessed
10. Fury
11. Battlefield
12. Master Plan
Якість:
Відео:
кодек:
розмір кадру: 1280 х 720
бітрейт: 4 682 кб/с

Аудіо # 1:
мова: українська (завантажити звук)
переклад: багатоголосий закадровий
кодек: 2.0
бітрейт: 192 кб/с

Аудіо # 2:
мова: англійська
переклад: оригінал
кодек: 2.0
бітрейт: 384 кб/с

Джерело озвучення:
Info
General
Unique ID : 206330318944446002709731020817494777000 (0x9B39C622D5386A419D8D3FFF49651CA8)
Complete name : G:\SERIES\Teen wolf\Teen Wolf (Season 2) (2012) 720p [Ukr, Eng]\teen wolf s02e01 (2012) 720p [ukr, eng].
Format :
Format version : Version 2
File size : 1.37 GiB
Duration : 41 min 56 s
Overall bit rate : 4 682 kb/s
Encoded date : UTC 2016-01-06 13:52:33
Writing application : v4.9.1 ('Ich will') зібрано Jul 11 2011 23:53:15
Writing library : libebml v1.2.1 + v1.1.1

Video
ID : 1
Format : AVC
Format/Info : Advanced Video Codec
Format profile : [email protected]
Format settings, CABAC : No
Format settings, ReFrames : 2 frames
Format settings, GOP : N=1
Codec ID : V_MPEG4/ISO/AVC
Duration : 41 min 56 s
Bit rate : 4 012 kb/s
Width : 1 280 pixels
Height : 720 pixels
Display aspect ratio : 16:9
Frame rate mode : Constant
Frame rate : 23.976 FPS
Color space : YUV
Chroma subsampling : 4:2:0
Bit depth : 8 bits
Scan type : Progressive
Bits/(Pixel*Frame) : 0.182
Stream size : 1.18 GiB (86%)
Language : English
Default : Yes
Forced : No
Color range : Limited
Color primaries : BT.709
Transfer characteristics : BT.709
Matrix coefficients : BT.709

Audio #1
ID : 2
Format : AC-3
Format/Info : Audio Coding 3
Mode extension : CM (complete main)
Format settings, Endianness : Big
Codec ID : A_AC3
Duration : 41 min 56 s
Bit rate mode : Constant
Bit rate : 192 kb/s
Channel(s) : 2 channels
Channel positions : Front: L R
Sampling rate : 48.0 kHz
Frame rate : 31.250 FPS (1536 spf)
Bit depth : 16 bits
Compression mode : Lossy
Stream size : 57.6 MiB (4%)
Title : 1+1
Language : Ukrainian
Default : Yes
Forced : No

Audio #2
ID : 3
Format : AC-3
Format/Info : Audio Coding 3
Mode extension : CM (complete main)
Format settings, Endianness : Big
Codec ID : A_AC3
Duration : 41 min 56 s
Bit rate mode : Constant
Bit rate : 384 kb/s
Channel(s) : 6 channels
Channel positions : Front: L C R, Side: L R, LFE
Sampling rate : 48.0 kHz
Frame rate : 31.250 FPS (1536 spf)
Bit depth : 16 bits
Compression mode : Lossy
Stream size : 115 MiB (8%)
Language : English
Default : No
Forced : No
Скріншоти




Джерело: ex.ua, SgBILko
Особиста оцінка: 0 - не дивився


Бронзовий реліз (на рейтинг впливає 75% завантаженого)
 Трекер:    Зареєстрований   

Завантажити / скачати серіал українською



відео для новачків



 Зареєстрований:   2016-11-20 13:28
 Розмір:   16.17 GB 
 Оцінка серіалу:   8.7/10 (Голосів: 16)
   
igor911 
Модератор відео


З нами з: 18.01.08
Востаннє: 01.12.20
Повідомлень: 15083

2016-11-20 13:33  
"золото" до 30.11 в рамках акції з переносу укр.контенту з ex.ua
Vornak 
Частий відвідувач


З нами з: 30.11.14
Востаннє: 11.01.18
Повідомлень: 32

2016-12-29 14:27  
Скажіть будь-ласка українською є тільки 2 сезон цього серіалу?
BatissForever 
Новенький


З нами з: 28.01.17
Востаннє: 22.11.20
Повідомлень: 9

2017-02-04 07:07  
Vornak
Перший сезон - поки із субтитрами - проект тільки розпочато. Приємного перегляду.

Vornak 
Частий відвідувач


З нами з: 30.11.14
Востаннє: 11.01.18
Повідомлень: 32

2017-03-24 18:04  
BatissForever
Дякую!

Ваш часовий пояс: GMT + 2 Години

Нова тема   Відповісти