Медіум (Сезон 4) / Medium (Season 4) (2008) 720p Ukr/Eng

Нові коментарі

Нова тема   Відповісти
Автор Повідомлення
Anonymous 







2016-11-20 09:38  
Медіум (Сезон 4) / Medium (Season 4) (2008) 720p Ukr/Eng

Медіум (Сезон 4) / Medium (Season 4) (2008) 720p Ukr/Eng


Жанр: драма, кримінальний, трилер, містика, фантастика
Країна: США



Кінокомпанія: Picturemaker Productions, Grammnet Productions, Paramount Network Television
Режисер: Glenn Gordon Caron
Актори: Patricia Arquette, Miguel Sandoval, Jake Weber

Сюжет:
Звичайна домогосподарка, мати трьох дітей володіє унікальним даром - бачить уві сні реальні вбивства. Жінка-медіум одночасно допомагає поліції у затриманні злочинців і намагається не зруйнувати свою сім’ю.


Тривалість: 1 серія: 00:45 (цілком серій: 16)
Перелік серій
01. And Then
02. But for the Grace of God
03. To Have and to Hold
04. Do You Hear What I Hear?
05. Girls Ain't Nothing But Trouble
06. Aftertaste
07. Burn Baby Burn: Part 1
08. Burn, Baby, Burn: Part 2
09. Wicked Game: Part One
10. Wicked Game: Part Two
11. Lady Killer
12. Partners in Crime
13. A Cure for What Ails You
14. Car Trouble
15. Being Joey Carmichael
16. Drowned World
Якість:
Відео:
кодек:
розмір кадру: 1280 х 720
бітрейт: 4 096 кб/с

Аудіо # 1:
мова: українська (завантажити звук)
переклад: багатоголосий закадровий
кодек: 2.0
бітрейт: 192 кб/с

Аудіо # 2:
мова: англійська
переклад: оригінал
кодек: 2.0
бітрейт: 384 кб/с

Джерело озвучення:
Сонце
Info
General
Unique ID : 226436495268967361246312373277827430088 (0xAA5A152A20912CCABA4338F8E6F276C8)
Complete name : G:\SERIES\Medium\Medium (Season 4) (2008) 720p [Ukr, Eng]\Medium S04E01 720p [Ukr, Eng].
Format :
Format version : Version 4 / Version 2
File size : 1.41 GiB
Duration : 43 min 19 s
Overall bit rate : 4 674 kb/s
Encoded date : UTC 2016-11-18 16:51:01
Writing application : v9.5.0 ('Quiet Fire') 64bit
Writing library : libebml v1.3.4 + v1.4.5

Video
ID : 1
Format : AVC
Format/Info : Advanced Video Codec
Format profile : [email protected]
Format settings, CABAC : No
Format settings, ReFrames : 2 frames
Codec ID : V_MPEG4/ISO/AVC
Duration : 43 min 19 s
Bit rate : 4 096 kb/s
Width : 1 280 pixels
Height : 720 pixels
Display aspect ratio : 16:9
Frame rate mode : Constant
Frame rate : 23.976 (23976/1000) FPS
Color space : YUV
Chroma subsampling : 4:2:0
Bit depth : 8 bits
Scan type : Progressive
Bits/(Pixel*Frame) : 0.185
Stream size : 1.24 GiB (88%)
Language : English
Default : Yes
Forced : No
Color range : Limited
Color primaries : BT.709
Transfer characteristics : BT.709
Matrix coefficients : BT.709

Audio #1
ID : 2
Format : AC-3
Format/Info : Audio Coding 3
Mode extension : CM (complete main)
Format settings, Endianness : Big
Codec ID : A_AC3
Duration : 43 min 19 s
Bit rate mode : Constant
Bit rate : 192 kb/s
Channel(s) : 2 channels
Channel positions : Front: L R
Sampling rate : 48.0 kHz
Frame rate : 31.250 FPS (1536 spf)
Bit depth : 16 bits
Compression mode : Lossy
Stream size : 59.5 MiB (4%)
Title : Так Треба Продакшн
Language : Ukrainian
Default : Yes
Forced : No

Audio #2
ID : 3
Format : AC-3
Format/Info : Audio Coding 3
Mode extension : CM (complete main)
Format settings, Endianness : Big
Codec ID : A_AC3
Duration : 43 min 19 s
Bit rate mode : Constant
Bit rate : 384 kb/s
Channel(s) : 6 channels
Channel positions : Front: L C R, Side: L R, LFE
Sampling rate : 48.0 kHz
Frame rate : 31.250 FPS (1536 spf)
Bit depth : 16 bits
Compression mode : Lossy
Stream size : 119 MiB (8%)
Language : English
Default : No
Forced : No
Скріншоти



Джерело: ex.ua, SgBILko
Особиста оцінка: 0 - не дивився


Золотий реліз (завантажене не впливає на рейтинг)
 Трекер:    Зареєстрований   

Завантажити / скачати серіал українською



відео для новачків



 Зареєстрований:   2016-11-22 08:53
 Розмір:   22.2 GB 
 Оцінка серіалу:   10/10 (Голосів: 12)
   
Neytreenor 
Відео Гуртом - запис з ТБ
Відео Гуртом - запис з ТБ


З нами з: 03.04.11
Востаннє: 04.12.20
Повідомлень: 2923

2016-11-20 10:20  
ALFROMEDA
Ти чомусь в лічерах, десь накосячив.

ALFROMEDA написано:
Джерело озвучення: НТН

Трансляція була на каналі Сонце

Anonymous 







2016-11-20 10:32  
вже не перший раз застряє на 99.9
приходиться заново торрент створювати а старий викидувати =( взагалі провал

в будь-якому випадку рекомендую дочекатись коли повісять золото для фрі трафіка і тільки потім качати

Neytreenor 
Відео Гуртом - запис з ТБ
Відео Гуртом - запис з ТБ


З нами з: 03.04.11
Востаннє: 04.12.20
Повідомлень: 2923

2016-11-20 10:53  
ALFROMEDA написано:

вже не перший раз застряє на 99.9
приходиться заново торрент створювати а старий викидувати =( взагалі провал

Зараз вже нормально

igor911 
Модератор відео


З нами з: 18.01.08
Востаннє: 04.12.20
Повідомлень: 15090

2016-11-20 13:34  
золото до 30.11
Anonymous 







2016-11-22 09:39  
торрент оновлено - додано 8 серію з українським озвученням, яку підготував пан Neytreenor
grimson32 
Свій


З нами з: 03.04.12
Востаннє: 04.12.20
Повідомлень: 92

2016-11-27 11:20  
Начебто Сонце ТБ показує 5-й сезон.
Neytreenor 
Відео Гуртом - запис з ТБ
Відео Гуртом - запис з ТБ


З нами з: 03.04.11
Востаннє: 04.12.20
Повідомлень: 2923

2016-11-27 12:08  
grimson32 написано:
Начебто Сонце ТБ показує 5-й сезон.

Так, але якось через серію Confused

0mage0 
VIP


З нами з: 06.10.15
Востаннє: 04.12.20
Повідомлень: 709

2017-02-21 09:05  
Цікавий серіал. Дуже хотілось би побачити наступні сезони...
Ваш часовий пояс: GMT + 2 Години

Нова тема   Відповісти