Медіум (Сезон 3) / Medium (Season 3) (2006-2007) 720p Ukr/Eng

Нові коментарі

Нова тема   Відповісти
Автор Повідомлення
Anonymous 







2016-11-17 19:59  
Медіум (Сезон 3) / Medium (Season 3) (2006-2007) 720p Ukr/Eng

Медіум (Сезон 3) / Medium (Season 3) (2006-2007) 720p Ukr/Eng


Жанр: драма, кримінальний, трилер, містика, фантастика
Країна: США



Кінокомпанія: Picturemaker Productions, Grammnet Productions, Paramount Network Television
Режисер: Glenn Gordon Caron
Актори: Patricia Arquette, Miguel Sandoval, Jake Weber

Сюжет:
Звичайна домогосподарка, мати трьох дітей володіє унікальним даром - бачить уві сні реальні вбивства. Жінка-медіум одночасно допомагає поліції у затриманні злочинців і намагається не зруйнувати свою сім’ю.


Тривалість: 1 серія: 45:00 (цілком серій: 22)
Перелік серій
01. Four Dreams: Part 1
02. Four Dreams: Part 2
03. Be Kind, Rewind
04. Blood Relation
05. Ghost in the Machine
06. Profiles in Terror
07. Mother's Little Helper
08. The Whole Truth
09. Better Off Dead
10. Very Merry Maggie
11. Apocalypse, Push
12. The One Behind the Wheel
13. Second Opinion
14. We Had a Dream
15. The Boy Next Door
16. Whatever Possessed You
17. Joe Day Afternoon
18. 1-900-Lucky
19. No One to Watch Over Me
20. Head Games
21. Heads Will Roll
22. Everything Comes to a Head
Якість: 720p
Відео:
кодек:
розмір кадру: 1280 х 720
бітрейт: 3 899 кб/с

Аудіо # 1:
мова: українська
переклад: багатоголосий закадровий
кодек: 2.0
бітрейт: 192 кб/с

Аудіо # 2:
мова: англійська
переклад: оригінал
кодек: 2.0
бітрейт: 384 кб/с

Джерело озвучення:
Info
General
Unique ID : 176421025804889917699010790417032082219 (0x84B97421DD0A582B87805AF33858F32B)
Complete name : G:\SERIES\Medium\Medium (Season 3) (2006-2007) 720p [Ukr, Eng]\Medium S03E01 HDTV 720p [Ukr, Eng].
Format :
Format version : Version 4 / Version 2
File size : 1.31 GiB
Duration : 41 min 55 s
Overall bit rate mode : Variable
Overall bit rate : 4 474 kb/s
Encoded date : UTC 2016-11-17 20:20:46
Writing application : v9.5.0 ('Quiet Fire') 64bit
Writing library : libebml v1.3.4 + v1.4.5

Video
ID : 1
Format : AVC
Format/Info : Advanced Video Codec
Format profile : [email protected]
Format settings, CABAC : Yes
Format settings, ReFrames : 5 frames
Codec ID : V_MPEG4/ISO/AVC
Duration : 41 min 55 s
Bit rate mode : Variable
Bit rate : 3 899 kb/s
Maximum bit rate : 40.0 Mb/s
Width : 1 280 pixels
Height : 720 pixels
Display aspect ratio : 16:9
Frame rate mode : Constant
Frame rate : 25.000 FPS
Color space : YUV
Chroma subsampling : 4:2:0
Bit depth : 8 bits
Scan type : Progressive
Bits/(Pixel*Frame) : 0.169
Stream size : 1.14 GiB (87%)
Writing library : core 112 r1867 22bfd31
Encoding settings : cabac=1 / ref=6 / deblock=1:0:0 / analyse=0x3:0x113 / me=umh / subme=7 / psy=1 / psy_rd=1.00:0.00 / mixed_ref=1 / me_range=16 / chroma_me=1 / trellis=2 / 8x8dct=1 / cqm=0 / deadzone=21,11 / fast_pskip=0 / chroma_qp_offset=-2 / threads=36 / sliced_threads=0 / slices=4 / nr=0 / decimate=0 / interlaced=0 / constrained_intra=0 / bframes=3 / b_pyramid=1 / b_adapt=2 / b_bias=0 / direct=3 / weightb=1 / open_gop=2 / weightp=2 / keyint=24 / keyint_min=1 / scenecut=40 / intra_refresh=0 / rc_lookahead=24 / rc=2pass / mbtree=1 / bitrate=3899 / ratetol=1.0 / qcomp=0.60 / qpmin=0 / qpmax=51 / qpstep=4 / cplxblur=20.0 / qblur=0.5 / vbv_maxrate=40000 / vbv_bufsize=30000 / nal_hrd=vbr / ip_ratio=1.40 / aq=2:1.00
Default : Yes
Forced : No

Audio #1
ID : 2
Format : AC-3
Format/Info : Audio Coding 3
Mode extension : CM (complete main)
Format settings, Endianness : Big
Codec ID : A_AC3
Duration : 41 min 55 s
Bit rate mode : Constant
Bit rate : 192 kb/s
Channel(s) : 2 channels
Channel positions : Front: L R
Sampling rate : 48.0 kHz
Frame rate : 31.250 FPS (1536 spf)
Bit depth : 16 bits
Compression mode : Lossy
Stream size : 57.6 MiB (4%)
Title : Так Треба Продакшн
Language : Ukrainian
Default : Yes
Forced : No

Audio #2
ID : 3
Format : AC-3
Format/Info : Audio Coding 3
Mode extension : CM (complete main)
Format settings, Endianness : Big
Codec ID : A_AC3
Duration : 41 min 55 s
Bit rate mode : Constant
Bit rate : 384 kb/s
Channel(s) : 2 channels
Channel positions : Front: L R
Sampling rate : 48.0 kHz
Frame rate : 31.250 FPS (1536 spf)
Bit depth : 16 bits
Compression mode : Lossy
Stream size : 115 MiB (9%)
Title : English
Language : English
Default : No
Forced : No
Скріншоти







Джерело: ex.ua, SgBILko
Особиста оцінка: 0 - не дивився


Золотий реліз (завантажене не впливає на рейтинг)
 Трекер:    Зареєстрований   

Завантажити / скачати серіал українською



відео для новачків



 Зареєстрований:   2016-11-18 10:22
 Розмір:   28.54 GB 
 Оцінка серіалу:   9.9/10 (Голосів: 14)
   
11FrYkT 
Модератор відео


З нами з: 20.02.11
Востаннє: 04.12.20
Повідомлень: 7049

2016-11-17 21:14  
ALFROMEDA написано:
Muxing mode : Header stripping

перемуксуйте з відключенням цієї функції https://toloka.to/t31095

Anonymous 







2016-11-18 10:42  
готово.
минулий торрент я не роздавав, тож видаліть торрент і файл та перекачайте (хто встиг качнути до 10:22)

п.с. 4 сезон готую, але там бракує 8 серії. скорше за все завтра викладу без 8 серії, згодом буде додана з субтитрами

Neytreenor 
Відео Гуртом - запис з ТБ
Відео Гуртом - запис з ТБ


З нами з: 03.04.11
Востаннє: 04.12.20
Повідомлень: 2923

2016-11-18 12:04  
ALFROMEDA написано:
4 сезон готую, але там бракує 8 серії. скорше за все завтра викладу без 8 серії, згодом буде додана з субтитрами

Зараз на ТБ серіал повторюють, то ж є надія на український звук до цієї серії

BLV2 
Частий відвідувач


З нами з: 31.01.12
Востаннє: 01.12.20
Повідомлень: 39

2017-01-05 11:45  
А перші два сезони ?
Neytreenor 
Відео Гуртом - запис з ТБ
Відео Гуртом - запис з ТБ


З нами з: 03.04.11
Востаннє: 04.12.20
Повідомлень: 2923

2017-01-05 12:44  
BLV2 написано:
А перші два сезони ?

Другий колись буде, принаймні записи є. Чи транслювали перший - невідомо, може й ні. Ще п'ятий показували та аж серію з шостого Happy.

R.G.All_Coders 
VIP


З нами з: 14.09.13
Востаннє: 02.12.20
Повідомлень: 301

2017-02-16 01:46  
Neytreenor написано:
Другий колись буде, принаймні записи є. Чи транслювали перший - невідомо, може й ні. Ще п'ятий показували та аж серію з шостого .

і коли буде?

Miss Ariana 
Новенький


З нами з: 04.09.12
Востаннє: 16.10.20
Повідомлень: 3

2018-02-07 23:26  
Підкажіть, будь ласка, а надію на другий сезон таки плекати? Happy
Neytreenor 
Відео Гуртом - запис з ТБ
Відео Гуртом - запис з ТБ


З нами з: 03.04.11
Востаннє: 04.12.20
Повідомлень: 2923

2018-02-07 23:33  
Miss Ariana написано:
Підкажіть, будь ласка, а надію на другий сезон таки плекати? Happy

Авжеж.

Ваш часовий пояс: GMT + 2 Години

Нова тема   Відповісти