Кістки (Сезон 7) / Bones (Season 7) (2011-2012) 720p Ukr/Eng

Нові коментарі

Нова тема   Відповісти
Автор Повідомлення
Anonymous 







2016-11-17 12:53  
Кістки (Сезон 7) / Bones (Season 7) (2011-2012) 720p Ukr/Eng

Кістки (Сезон 7) / Bones (Season 7) (2011-2012) 720p Ukr/Eng


Жанр: детектив, драма, комедія
Країна: США



Кінокомпанія: 20 Century Fox, FOX
Режисер: Хард Хадсон
Актори: Емілі Дешанель, Міхаела Конлін, Ерік Мілеган, Ті Джей Тайн, Джонатан Адамс та інші

Сюжет:
Серіал створено на створено на основі особистого досвіду криміналіста-антрополога і письменниці Кетті Рейнс.
Доктор Темперанс Бреннан, блискучий, але самотній антрополог одержує те, чого вона найменше бажала - напарника. Бюро посилає їй амбіційного агента ФБР Сілі Бута, щоб допомогти в розслідуванні нерозкритих справ шляхом вивчення й ідентифікації кісток давно зниклих людей.
Але давно померлі жертви не єдине, з чим зустрінуться Костомаха, Бут і їхній команді. Розкриваючи злочин, вони часто зіштовхуються з хабарництвом, корупцією й місцевою розрізненістю.


Тривалість: 1 серія: 43:00 (цілком серій: 13)
Перелік серій
01. The Memories in the Shallow Grave
02. The Hot Dog in the Competition
03. The Prince in the Plastic
04. The Male in the Mail
05. The Twist in the Twister
06. The Crack in the Code
07. The Prisoner in the Pipe
08. The Bump in the Road
09. The Don't in the Do
10. The Warrior in the Wuss
11. The Family in the Feud
12. The Suit on the Set
13. The Past in the Present
Якість:
Відео:
кодек:
розмір кадру: 1280 х 720
бітрейт: 3 964 кб/с

Аудіо # 1:
мова: українська
переклад: багатоголосий закадровий
кодек: 2.0
бітрейт: 192 кб/с

Аудіо # 2:
мова: англійська
переклад: оригінал
кодек: 2.0
бітрейт: 384 кб/с

Джерело озвучення:
Info
General
Unique ID : 228563074606488464588559496855836802047 (0xABF3A59EF25E7E36959A32D1A4C9BBFF)
Complete name : G:\SERIES\Bones (Season 7) (2011-2012) 720p [Ukr, Eng]\Bones s07e01 720p [Ukr, Eng].
Format :
Format version : Version 2
File size : 1.41 GiB
Duration : 43 min 34 s
Overall bit rate : 4 632 kb/s
Encoded date : UTC 2015-12-20 15:06:21
Writing application : v4.9.1 ('Ich will') зібрано Jul 11 2011 23:53:15
Writing library : libebml v1.2.1 + v1.1.1

Video
ID : 1
Format : AVC
Format/Info : Advanced Video Codec
Format profile : [email protected]
Format settings, CABAC : No
Format settings, ReFrames : 2 frames
Codec ID : V_MPEG4/ISO/AVC
Duration : 43 min 34 s
Bit rate : 3 964 kb/s
Width : 1 280 pixels
Height : 720 pixels
Display aspect ratio : 16:9
Frame rate mode : Constant
Frame rate : 23.976 FPS
Color space : YUV
Chroma subsampling : 4:2:0
Bit depth : 8 bits
Scan type : Progressive
Bits/(Pixel*Frame) : 0.179
Stream size : 1.21 GiB (86%)
Language : English
Default : Yes
Forced : No
Color range : Limited
Color primaries : BT.709
Transfer characteristics : BT.709
Matrix coefficients : BT.709

Audio #1
ID : 2
Format : AC-3
Format/Info : Audio Coding 3
Mode extension : CM (complete main)
Format settings, Endianness : Big
Codec ID : A_AC3
Duration : 43 min 34 s
Bit rate mode : Constant
Bit rate : 192 kb/s
Channel(s) : 2 channels
Channel positions : Front: L R
Sampling rate : 48.0 kHz
Frame rate : 31.250 FPS (1536 spf)
Bit depth : 16 bits
Compression mode : Lossy
Stream size : 59.8 MiB (4%)
Title : Так Треба Продакшн
Language : Ukrainian
Default : Yes
Forced : No

Audio #2
ID : 3
Format : AC-3
Format/Info : Audio Coding 3
Mode extension : CM (complete main)
Format settings, Endianness : Big
Codec ID : A_AC3
Duration : 43 min 34 s
Bit rate mode : Constant
Bit rate : 384 kb/s
Channel(s) : 6 channels
Channel positions : Front: L C R, Side: L R, LFE
Sampling rate : 48.0 kHz
Frame rate : 31.250 FPS (1536 spf)
Bit depth : 16 bits
Compression mode : Lossy
Stream size : 120 MiB (8%)
Title : Eng DD5.1
Language : English
Default : No
Forced : No
Скріншоти




Джерело: ex.ua SgBILko
Особиста оцінка: 0 - не дивився


Бронзовий реліз (на рейтинг впливає 75% завантаженого)
 Трекер:    Зареєстрований   

Завантажити / скачати серіал українською



відео для новачків



 Зареєстрований:   2016-11-17 14:40
 Розмір:   18.26 GB 
 Оцінка серіалу:   9.8/10 (Голосів: 12)
   
[Captain] 
VIP


З нами з: 19.02.12
Востаннє: 25.08.19
Повідомлень: 1973

2016-11-17 15:44  
Боюсь я, що всі ці релізи все одно пропадуть, оскільки з часом люди підуть з роздач...
igor911 
Модератор відео


З нами з: 18.01.08
Востаннє: 26.08.19
Повідомлень: 13179

2016-11-17 15:54  
[Captain], знову "зрада"?

Додано через 8 хвилин 18 секунд:

поки ставлю "золото" на релізи, перенесені з екса. Хоча, коли зараз немає 0,15 рейтингового бар'єра, тож навіть при низькому рейтингу можна спокійно вантажити.

[Captain] 
VIP


З нами з: 19.02.12
Востаннє: 25.08.19
Повідомлень: 1973

2016-11-17 16:00  
igor911
я до того, що в ідеальному випадкові було б відокремити всі доріжки від відео та зберегти на сервер.

Neytreenor 
Відео Гуртом - запис з ТБ
Відео Гуртом - запис з ТБ


З нами з: 03.04.11
Востаннє: 26.08.19
Повідомлень: 2027

2016-11-17 17:02  
[Captain] написано:
Боюсь я, що всі ці релізи все одно пропадуть, оскільки з часом люди підуть з роздач...

Як закінчемо з "порятунком", треба серйозно взятися за підтримку.

Anonymous 







2016-11-17 20:44  
я взявся за цей реліз, the listener, medium (3, 4 сезон) та teen wolf 2 сезон
заливаю доріжки на свою хмару. як завершиться епопея як мінімум ці доріжки будуть надійно збережені.

+ще планую зберегти once upoon a time 3 сезон доріжки 192кб/с

огризки типу listener 5 сезон (1, 2 серія), medium 12 серія 2ого сезону будуть на хмарі.

це ще не кажучи про те, що свої релізи планую сідувати поки не здохне жорсткий диск=)

olena-zelena 
Новенький


З нами з: 29.04.10
Востаннє: 19.04.19
Повідомлень: 16

2017-02-07 01:26  
А немає інших сезонів цього серіалу? В мережі тільки три серії з першого сезону, четвертий та ще ось сьомий. Невже решту ніхто ніколи не записував? Sad (1)
Lil`Antoni 
VIP


З нами з: 25.02.12
Востаннє: 24.08.19
Повідомлень: 738

2017-11-24 00:29  
Знову наткнувся на цей прекаснйи фільм по ТВ, і захотів по можливості скачати, одумав тут буде все ,а ні((
Дивлюся з мамою по 2+2, там я зрозумів другий сезон.

Хто що знає, чи будуть тут всі сезони? і яка саме там озвучка? Чи може вони самі з нуля роблять? Голоса мені сподобалися.

fl_fl 
Відео Гуртом - фільмокрай
Відео Гуртом - фільмокрай


З нами з: 26.05.09
Востаннє: 26.08.19
Повідомлень: 3170

2017-11-27 00:14  
Lil`Antoni написано:
Хто що знає, чи будуть тут всі сезони? і яка саме там озвучка? Чи може вони самі з нуля роблять? Голоса мені сподобалися.

1+1 самі робили нову озвучку. Усі старі озвучки були на 2 голоси, які мінялись через сезон.

Lil`Antoni 
VIP


З нами з: 25.02.12
Востаннє: 24.08.19
Повідомлень: 738

2017-12-28 12:07  
fl_fl написано:
1+1 самі робили нову озвучку. Усі старі озвучки були на 2 голоси, які мінялись через сезон.

Зозуміло. А будуть н трекері інші сезони хоч з іншою озвучкою ?

sergiyko.5 
VIP


З нами з: 25.02.16
Востаннє: 26.08.19
Повідомлень: 2459

2017-12-28 12:14  
Lil`Antoni написано:
Зозуміло. А будуть на трекері інші сезони хоч з іншою озвучкою ?


Вони вже є і оновлюються новими серіями:

https://toloka.to/t85411
https://toloka.to/t85476

Lil`Antoni 
VIP


З нами з: 25.02.12
Востаннє: 24.08.19
Повідомлень: 738

2017-12-28 12:24  
sergiyko.5 написано:
Вони вже є і оновлюються новими серіями:

Дякую, коли продивлявся деякий час назад то ще не бчив Happy

Ваш часовий пояс: GMT + 2 Години

Нова тема   Відповісти