Той, що читає думки (Сезон 4) / The Listener (Season 4) (2013) 720p Ukr/Eng

Нові коментарі

Нова тема   Відповісти
Автор Повідомлення
Anonymous 







2016-11-17 09:15  
Той, що читає думки (Сезон 4) / The Listener (Season 4) (2013) 720p Ukr/Eng

Той, що читає думки (Сезон 4) / The Listener (Season 4) (2013) 720p Ukr/Eng


Жанр: фентезі, драма, кримінальний
Країна: Канада



Кінокомпанія: Shaftesbury Films, CTV Television Network, Bell Broadcast and New Media
Режисер: Michael Amo, Sam Egan
Актори: Craig Anthony Olejnik, Ennis Esmer, Lauren Lee Smith, Rainbow Francks

Сюжет:
Тобі Логану 28 років, він парамедик і вміє читати думки інших людей. Він ніколи не знав свого батька й виріс у прийомних сім'ях. До цього моменту він нікому не говорив про свій дар, за винятком доктора Рея Мерсера. Коли Тобі патрулює Торонто зі своїм напарником Озом, він починає користуватися своїм даром, допомагати людям у важких ситуаціях і розкривати злочини. За допомогою детектива Чарлі Маркс і своєї подруги лікаря Олівії Фосетт, з якою він то сходиться, то розходиться, Тобі розуміє, що його призначення допомагати іншим.


Тривалість: 1 серія: 40:00 (цілком серій: 13)
Перелік серій
01. Blast from the Past
02. The Blue Line
03. Early Checkout
04. Cold Storage
05. Buckle Up
06. Witness for the Prosecution
07. Caged In
08. The Illustrated Woman
09. Love's a Bitch
10. The Long Con
11. House of Horror
12. False I.D.
13. Fatal Vision
Якість: 720p
Відео:
кодек:
розмір кадру: 1276 х 716
бітрейт: 2 796 кб/с

Аудіо # 1:
мова: українська
переклад: багатоголосий закадровий
кодек: 2.0
бітрейт: 192 кб/с

Аудіо # 2:
мова: англійська
переклад: оригінал
кодек: 2.0
бітрейт: 384 кб/с

Джерело озвучення:
Info
General
Unique ID : 199457995186165949014364968787840860999 (0x960E366A2D93984EBF2FEEAD4CF40347)
Complete name : D:\MOVIES\the listener\new\The Listener (Season 4) (2013) [Ukr, Eng]\The Listener s04e01 HDTV 720p [ukr, eng].
Format :
Format version : Version 4 / Version 2
File size : 1.05 GiB
Duration : 43 min 44 s
Overall bit rate : 3 441 kb/s
Encoded date : UTC 2016-11-18 06:52:03
Writing application : v9.5.0 ('Quiet Fire') 64bit
Writing library : libebml v1.3.4 + v1.4.5

Video
ID : 1
Format : AVC
Format/Info : Advanced Video Codec
Format profile : [email protected]
Format settings, CABAC : Yes
Format settings, ReFrames : 5 frames
Codec ID : V_MPEG4/ISO/AVC
Duration : 43 min 43 s
Bit rate : 2 864 kb/s
Width : 1 276 pixels
Height : 716 pixels
Display aspect ratio : 16:9
Frame rate mode : Constant
Frame rate : 23.976 (24000/1001) FPS
Color space : YUV
Chroma subsampling : 4:2:0
Bit depth : 8 bits
Scan type : Progressive
Bits/(Pixel*Frame) : 0.131
Stream size : 896 MiB (83%)
Writing library : core 133 r2334 a3ac64b
Encoding settings : cabac=1 / ref=5 / deblock=1:1:1 / analyse=0x3:0x113 / me=umh / subme=8 / psy=1 / psy_rd=1.00:0.00 / mixed_ref=1 / me_range=16 / chroma_me=1 / trellis=1 / 8x8dct=1 / cqm=0 / deadzone=21,11 / fast_pskip=0 / chroma_qp_offset=-2 / threads=16 / lookahead_threads=2 / sliced_threads=0 / nr=0 / decimate=1 / interlaced=0 / bluray_compat=0 / constrained_intra=0 / bframes=3 / b_pyramid=2 / b_adapt=2 / b_bias=0 / direct=3 / weightb=1 / open_gop=0 / weightp=2 / keyint=250 / keyint_min=23 / scenecut=40 / intra_refresh=0 / rc_lookahead=50 / rc=crf / mbtree=1 / crf=18.0 / qcomp=0.60 / qpmin=0 / qpmax=69 / qpstep=4 / ip_ratio=1.40 / aq=1:1.00
Language : English
Default : Yes
Forced : No
Color range : Limited
Matrix coefficients : BT.709

Audio #1
ID : 2
Format : AC-3
Format/Info : Audio Coding 3
Mode extension : CM (complete main)
Format settings, Endianness : Big
Codec ID : A_AC3
Duration : 43 min 44 s
Bit rate mode : Constant
Bit rate : 192 kb/s
Channel(s) : 2 channels
Channel positions : Front: L R
Sampling rate : 48.0 kHz
Frame rate : 31.250 FPS (1536 spf)
Bit depth : 16 bits
Compression mode : Lossy
Stream size : 60.1 MiB (6%)
Title : Так Треба Продакшн
Language : Ukrainian
Default : Yes
Forced : No

Audio #2
ID : 3
Format : AC-3
Format/Info : Audio Coding 3
Mode extension : CM (complete main)
Format settings, Endianness : Big
Codec ID : A_AC3
Duration : 43 min 43 s
Bit rate mode : Constant
Bit rate : 384 kb/s
Channel(s) : 6 channels
Channel positions : Front: L C R, Side: L R, LFE
Sampling rate : 48.0 kHz
Frame rate : 31.250 FPS (1536 spf)
Bit depth : 16 bits
Compression mode : Lossy
Stream size : 120 MiB (11%)
Language : English
Default : No
Forced : No
Скріншоти







Джерело: ex.ua, SgBILko
Особиста оцінка: 0 - не дивився


Золотий реліз (завантажене не впливає на рейтинг)
 Трекер:    Зареєстрований   

Завантажити / скачати серіал українською



відео для новачків



 Зареєстрований:   2016-11-18 09:37
 Розмір:   13.03 GB 
 Оцінка серіалу:   9.5/10 (Голосів: 12)
   
Anonymous 







2016-11-17 19:57  
1, 2 серію 5ого сезону завантажив сюди (та деякі огризки інших серіалів)
https://cloud.mail.ru/public/9553/gaqgD7imV

і ще закину на мега (там досить повільно грузить)

на вихідних по тому ж посиланню будуть і тільки звукові доріжки

11FrYkT 
Модератор відео


З нами з: 20.02.11
Востаннє: 03.12.20
Повідомлень: 7048

2016-11-17 21:12  
ALFROMEDA написано:
Muxing mode : Header stripping

перемуксуйте з відключенням цієї функції https://toloka.to/t31095

korosta 
Частий відвідувач


З нами з: 18.10.12
Востаннє: 02.12.20
Повідомлень: 43

2018-07-27 17:01  
станьте хтось на роздачу будь-ласка!
Ваш часовий пояс: GMT + 2 Години

Нова тема   Відповісти