Той, що читає думки (Сезон 3) / The Listener (Season 3) (2012) 720p Ukr/Eng

Нові коментарі

Нова тема   Відповісти
Автор Повідомлення
Anonymous 







2016-11-17 08:10  
Той, що читає думки (Сезон 3) / The Listener (Season 3) (2012) 720p Ukr/Eng

Той, що читає думки (Сезон 3) / The Listener (Season 3) (2012) 720p Ukr/Eng


Жанр: фентезі, драма, кримінальний
Країна: Канада



Кінокомпанія: Shaftesbury Films, CTV Television Network, Bell Broadcast and New Media
Режисер: Michael Amo, Sam Egan
Актори: Craig Anthony Olejnik, Ennis Esmer, Lauren Lee Smith, Rainbow Francks

Сюжет:
Тобі Логану 28 років, він парамедик і вміє читати думки інших людей. Він ніколи не знав свого батька й виріс у прийомних сім'ях. До цього моменту він нікому не говорив про свій дар, за винятком доктора Рея Мерсера. Коли Тобі патрулює Торонто зі своїм напарником Озом, він починає користуватися своїм даром, допомагати людям у важких ситуаціях і розкривати злочини. За допомогою детектива Чарлі Маркс і своєї подруги лікаря Олівії Фосетт, з якою він то сходиться, то розходиться, Тобі розуміє, що його призначення допомагати іншим.


Тривалість: 1 серія: 40:00 (цілком серій: 13)
Перелік серій
01. The Bank Job
02. Cold Case Blues
03. Curtain Call
04. The Taking
05. Rogues' Gallery
06. She Sells Sanctuary
07. Poisoned Minds
08. Now You See Him
09. Crossed
10. Lockdown
11. Captain Nightfall
12. The Bro Code
13. The Shooting
Якість: 720p
Відео:
кодек:
розмір кадру: 1280 х 720
бітрейт: 3 639 кб/с

Аудіо # 1:
мова: українська
переклад: багатоголосий закадровий
кодек: 2.0
бітрейт: 192 кб/с

Аудіо # 2:
мова: англійська
переклад: оригінал
кодек: 2.0
бітрейт: 384 кб/с

Джерело озвучення:
Info
General
Unique ID : 196787867331916429035850641889574307481 (0x940BF6F28F3A935B955CBEC96BF0C699)
Complete name : D:\MOVIES\the listener\The Listener (Season 3) (2012) [Ukr, Eng]\The Listener s03e01 HDTV 720p [ukr, eng].
Format :
Format version : Version 4 / Version 2
File size : 1.23 GiB
Duration : 41 min 0 s
Overall bit rate : 4 302 kb/s
Encoded date : UTC 2016-11-17 20:01:58
Writing application : v9.5.0 ('Quiet Fire') 64bit
Writing library : libebml v1.3.4 + v1.4.5

Video
ID : 1
Format : AVC
Format/Info : Advanced Video Codec
Format profile : [email protected]
Format settings, CABAC : Yes
Format settings, ReFrames : 5 frames
Codec ID : V_MPEG4/ISO/AVC
Duration : 41 min 0 s
Bit rate : 3 724 kb/s
Width : 1 280 pixels
Height : 720 pixels
Display aspect ratio : 16:9
Frame rate mode : Constant
Frame rate : 23.976 (24000/1001) FPS
Color space : YUV
Chroma subsampling : 4:2:0
Bit depth : 8 bits
Scan type : Progressive
Bits/(Pixel*Frame) : 0.169
Stream size : 1.07 GiB (87%)
Writing library : core 125 r2200 999b753
Encoding settings : cabac=1 / ref=5 / deblock=1:0:0 / analyse=0x3:0x113 / me=umh / subme=8 / psy=1 / psy_rd=1.00:0.00 / mixed_ref=1 / me_range=16 / chroma_me=1 / trellis=1 / 8x8dct=1 / cqm=0 / deadzone=21,11 / fast_pskip=1 / chroma_qp_offset=-2 / threads=18 / lookahead_threads=3 / sliced_threads=0 / nr=0 / decimate=1 / interlaced=0 / bluray_compat=0 / constrained_intra=0 / bframes=3 / b_pyramid=2 / b_adapt=2 / b_bias=0 / direct=3 / weightb=1 / open_gop=0 / weightp=2 / keyint=250 / keyint_min=23 / scenecut=40 / intra_refresh=0 / rc_lookahead=50 / rc=crf / mbtree=1 / crf=18.0 / qcomp=0.60 / qpmin=0 / qpmax=69 / qpstep=4 / ip_ratio=1.40 / aq=1:1.00
Language : English
Default : Yes
Forced : No

Audio #1
ID : 2
Format : AC-3
Format/Info : Audio Coding 3
Mode extension : CM (complete main)
Format settings, Endianness : Big
Codec ID : A_AC3
Duration : 41 min 0 s
Bit rate mode : Constant
Bit rate : 192 kb/s
Channel(s) : 2 channels
Channel positions : Front: L R
Sampling rate : 48.0 kHz
Frame rate : 31.250 FPS (1536 spf)
Bit depth : 16 bits
Compression mode : Lossy
Stream size : 56.3 MiB (4%)
Title : Так Треба Продакшн
Language : Ukrainian
Default : Yes
Forced : No

Audio #2
ID : 3
Format : AC-3
Format/Info : Audio Coding 3
Mode extension : CM (complete main)
Format settings, Endianness : Big
Codec ID : A_AC3
Duration : 41 min 0 s
Bit rate mode : Constant
Bit rate : 384 kb/s
Channel(s) : 6 channels
Channel positions : Front: L C R, Side: L R, LFE
Sampling rate : 48.0 kHz
Frame rate : 31.250 FPS (1536 spf)
Bit depth : 16 bits
Compression mode : Lossy
Stream size : 113 MiB (9%)
Language : English
Default : No
Forced : No
Скріншоти







Джерело: ex.ua, SgBILko
Особиста оцінка: 0 - не дивився


Золотий реліз (завантажене не впливає на рейтинг)
 Трекер:    Зареєстрований   

Завантажити / скачати серіал українською



відео для новачків



 Зареєстрований:   2016-11-17 22:49
 Розмір:   13.16 GB 
 Оцінка серіалу:   9.7/10 (Голосів: 13)
   
11FrYkT 
Модератор відео


З нами з: 20.02.11
Востаннє: 04.12.20
Повідомлень: 7051

2016-11-17 21:11  
ALFROMEDA написано:
Muxing mode : Header stripping

перемуксуйте з відключенням цієї функції https://toloka.to/t31095

Ваш часовий пояс: GMT + 2 Години

Нова тема   Відповісти