Теорія Великого Вибуху (Сезон 10, Епізод 1-11 з 24) / The Big Bang Theory (2016-2017) 720р Eng | sub Ukr

Нові коментарі

Нова тема   Відповісти
Останній раз роздавалося a.yevgeniev (2017-08-06)
Автор Повідомлення
Gedet 
Відео Гуртом - субтитрування
Відео Гуртом - субтитрування


З нами з: 17.11.11
Востаннє: 17.05.17
Повідомлень: 1798

2016-11-16 01:52  
Теорія Великого Вибуху (Сезон 10, Епізод 1-11 з 24) / The Big Bang Theory (2016-2017) 720р Eng | sub Ukr

Теорія Великого Вибуху (Сезон 10, Епізод 1-11 з 24) / The Big Bang Theory (2016-2017) 720р Eng | sub Ukr


Жанр: комедія, ситком
Країна: США



Кінокомпанія: Chuck Lorre Productions, Warner Bros. Television
Режисер: Марк Седровські
Актори: Джоні Ґалекі, Джим Парсонс, Кейлі Куоко, Саймон Гельберґ, Кунал Наяр, Меліса Роч, Маєм Бієлік та інші

Сюжет:
Двоє блискучих фізиків, Леонард та Шелдон, розумники, які знаються на тому, як "працює всесвіт". Але їх геніальність ані трішечки не допомагає їм у спілкуванні з людьми, особливо жінками. Все змінюється, коли по сусідству поселяється красуня Пенні. А ще у хлопців є два дивакуватих друга: Говард, який полюбляє використовувати фрази різними мовами і Радж, який втрачає дар мови при появі жінки.
Перелік серій
1. Подружні домисли
2. Військова мініатюризація
3. Оборонна перевага
4. Експеримент співжиття
5. Контамінація джакузі
6. Каталізатор поштовху плоду
7. Еластичність правдивості
8. Інкубація чашкового мозку
9. Елевація геології
10. Колізія розділу майна
11. Синхронність народження
Тривалість: 1 серія - 23 хв.
Якість:
Відео:
кодек:
розмір кадру: 1280х720
бітрейт: 2539 кб/с

Аудіо:
мова: англійська
переклад: оригінал
кодек: 5.1
бітрейт: 384 кб/с

Субтитри:
мова: українська
тип: програмні (м'які)
формат: *.ass
Info
General
Unique ID : 197590681691137713338938607911247274676 (0x94A694C05A8D9A9DA3C0BC49CBEBE2B4)
Complete name : D:\Теорія великого вибуху 10\The.Big.Bang.Theory.S10E01.720p.HDTV.-DIMENSION.
Format :
Format version : Version 2
File size : 477 MiB
Duration : 21mn 56s
Overall bit rate : 3 036 Kbps
Encoded date : UTC 2016-09-19 22:34:48
Writing application : mkvmerge v3.1.0 ('Happy up here') built on Jan 19 2010 12:09:24
Writing library : libebml v0.7.9 + libmatroska v0.8.1

Video
ID : 1
Format : AVC
Format/Info : Advanced Video Codec
Format profile : [email protected]
Format settings, CABAC : Yes
Format settings, ReFrames : 8 frames
Codec ID : V_MPEG4/ISO/AVC
Duration : 21mn 56s
Bit rate : 2 592 Kbps
Width : 1 280 pixels
Height : 720 pixels
Display aspect ratio : 16:9
Frame rate mode : Constant
Frame rate : 23.976 fps
Color space : YUV
Chroma subsampling : 4:2:0
Bit depth : 8 bits
Scan type : Progressive
Bits/(Pixel*Frame) : 0.117
Stream size : 407 MiB (85%)
Writing library : core 148 r2705 3f5ed56
Encoding settings : cabac=1 / ref=8 / deblock=1:-2:-2 / analyse=0x3:0x113 / me=umh / subme=9 / psy=1 / psy_rd=1.00:0.00 / mixed_ref=1 / me_range=24 / chroma_me=1 / trellis=1 / 8x8dct=1 / cqm=0 / deadzone=21,11 / fast_pskip=0 / chroma_qp_offset=-2 / threads=18 / lookahead_threads=2 / sliced_threads=0 / nr=0 / decimate=1 / interlaced=0 / bluray_compat=0 / constrained_intra=0 / bframes=5 / b_pyramid=2 / b_adapt=2 / b_bias=0 / direct=3 / weightb=1 / open_gop=0 / weightp=2 / keyint=250 / keyint_min=23 / scenecut=40 / intra_refresh=0 / rc_lookahead=50 / rc=crf / mbtree=1 / crf=18.0 / qcomp=0.60 / qpmin=0 / qpmax=69 / qpstep=4 / ip_ratio=1.40 / aq=1:1.00
Language : English
Default : No
Forced : No

Audio
ID : 2
Format : AC-3
Format/Info : Audio Coding 3
Mode extension : CM (complete main)
Format settings, Endianness : Big
Codec ID : A_AC3
Duration : 21mn 56s
Bit rate mode : Constant
Bit rate : 384 Kbps
Channel(s) : 6 channels
Channel positions : Front: L C R, Side: L R, LFE
Sampling rate : 48.0 KHz
Bit depth : 16 bits
Compression mode : Lossy
Delay relative to video : 16ms
Stream size : 60.3 MiB (13%)
Default : Yes
Forced : No
Скріншоти





Джерело: Інше
Особиста оцінка: 9 - давно не бачив настільки якісне кіно


Авторський реліз (завантажувати можна без реєстрації)
 Трекер:    Зареєстрований   

Завантажити / скачати серіал українською



відео для новачків



 Зареєстрований:   2016-12-20 00:22
 Розмір:   4.62 GB 
 Оцінка серіалу:   10/10 (Голосів: 11)
   
Gedet 
Відео Гуртом - субтитрування
Відео Гуртом - субтитрування


З нами з: 17.11.11
Востаннє: 17.05.17
Повідомлень: 1798

2016-11-19 20:07  
Нова серія.
Gedet 
Відео Гуртом - субтитрування
Відео Гуртом - субтитрування


З нами з: 17.11.11
Востаннє: 17.05.17
Повідомлень: 1798

2016-12-04 21:12  
Нова серія.
lov1k 
VIP


З нами з: 13.12.09
Востаннє: 13.08.17
Повідомлень: 270

2016-12-04 22:46  
щось сумно з сідерами
Dima-nik 
Новенький


З нами з: 13.10.10
Востаннє: 19.08.17
Повідомлень: 1

2016-12-06 19:56  
Додайте ,будь ласка, і англійські субтитри.
Ваш часовий пояс: GMT + 2 Години

Нова тема   Відповісти